Loading...
Error

(Авторская песня) Владимир Высоцкий - Натянутый канат (1996) [FLAC (Image+.CUE), Lossless]

Статистика раздачи
Размер:  255 MB   |    Зарегистрирован:  1 год   |    Скачан:  1 раз
Сидов:  1  |  0 KB/s  ]   Личеров:  0  |  0 KB/s  ]

* - сиды/пиры с внешних источников

   
 
Автор Сообщение

Бишеп Пол:Муж

06-Апр-2012 07:04

Владимир Высоцкий - Натянутый канат

Жанр: Авторская песня
Год выпуска: 1996
Источник: CD
Производитель диска: PolyGram - 531605-2
Аудиокодек: FLAC
Тип рипа: Image+.CUE
Битрейт аудио: lossless
Продолжительность: 00:45:12


Треклист:
01. Диалог у телевизора
02. Протопи ты мне баньку по-белому
03. Баллада о правде и лжи
04. Канатоходец
05. Баллада о детстве
06. Две судьбы
07. Тот, кто раньше с нею был
08. Бег иноходца
09. На Большом Каретном
10. Rien Ne Va, Pluse Rien Ne Va
11. La Fin Du Bal

Код:

Exact Audio Copy V1.3 from 2. September 2016

EAC extraction logfile from 10. April 2017, 12:38

Владимир Высоцкий / Натянутый канат

Used drive  : TSSTcorpCDDVDW SH-224DB   Adapter: 0  ID: 1

Read mode               : Secure
Utilize accurate stream : Yes
Defeat audio cache      : Yes
Make use of C2 pointers : No

Read offset correction                      : 6
Overread into Lead-In and Lead-Out          : No
Fill up missing offset samples with silence : Yes
Delete leading and trailing silent blocks   : No
Null samples used in CRC calculations       : Yes
Used interface                              : Installed external ASPI interface

Used output format              : User Defined Encoder
Selected bitrate                : 1024 kBit/s
Quality                         : High
Add ID3 tag                     : No
Command line compressor         : D:\Program Files\Exact Audio Copy\Flac\flac.exe
Additional command line options : -V -8 -T "Genre=%genre%" -T "Artist=%artist%" -T "Title=%title%" -T "Album=%albumtitle%" -T "Date=%year%" -T "Tracknumber=%tracknr%" -T "Comment=%comment%" %source%

TOC of the extracted CD

     Track |   Start  |  Length  | Start sector | End sector
    ---------------------------------------------------------
        1  |  0:00.00 |  3:29.42 |         0    |    15716   
        2  |  3:29.42 |  7:40.20 |     15717    |    50236   
        3  | 11:09.62 |  4:23.10 |     50237    |    69971   
        4  | 15:32.72 |  3:39.30 |     69972    |    86426   
        5  | 19:12.27 |  5:28.23 |     86427    |   111049   
        6  | 24:40.50 |  5:12.72 |    111050    |   134521   
        7  | 29:53.47 |  2:47.53 |    134522    |   147099   
        8  | 32:41.25 |  2:19.37 |    147100    |   157561   
        9  | 35:00.62 |  2:12.63 |    157562    |   167524   
       10  | 37:13.50 |  3:50.40 |    167525    |   184814   
       11  | 41:04.15 |  4:07.52 |    184815    |   203391   

Range status and errors

Selected range

     Filename D:\Desktop\Владимир Высоцкий - Натянутый канат (1996)\Владимир Высоцкий - Натянутый канат.wav

     Peak level 100.0 %
     Extraction speed 3.0 X
     Range quality 100.0 %
     Test CRC A298B34C
     Copy CRC A298B34C
     Copy OK

No errors occurred

 
AccurateRip summary
 
Track  1  accurately ripped (confidence 1)  [997AD98D]  (AR v2)
Track  2  accurately ripped (confidence 1)  [4C572368]  (AR v2)
Track  3  accurately ripped (confidence 1)  [C11E10C7]  (AR v2)
Track  4  accurately ripped (confidence 1)  [37FCDA26]  (AR v2)
Track  5  accurately ripped (confidence 1)  [2C4FF11C]  (AR v2)
Track  6  accurately ripped (confidence 1)  [4859E1A1]  (AR v2)
Track  7  accurately ripped (confidence 1)  [9FA4DE1A]  (AR v2)
Track  8  accurately ripped (confidence 1)  [E9B3CA0A]  (AR v2)
Track  9  accurately ripped (confidence 1)  [A3D99E4F]  (AR v2)
Track 10  accurately ripped (confidence 1)  [35D37663]  (AR v2)
Track 11  accurately ripped (confidence 1)  [D5FCA192]  (AR v2)
 
All tracks accurately ripped

End of status report

==== Log checksum 759C07743FBB1455754910D600959D4296C1EE5E7FB445BEA20247EAD0817B72 ====

Код:

REM GENRE Chanson
REM DATE 1996
REM DISCID 8A0A970B
REM COMMENT "ExactAudioCopy v1.3"
PERFORMER "Владимир Высоцкий"
TITLE "Натянутый канат"
REM COMPOSER ""
FILE "Владимир Высоцкий - Натянутый канат.flac" WAVE
  TRACK 01 AUDIO
    TITLE "Диалог у телевизора"
    PERFORMER "Владимир Высоцкий"
    REM COMPOSER ""
    FLAGS DCP
    INDEX 01 00:00:00
  TRACK 02 AUDIO
    TITLE "Протопи ты мне баньку по-белому"
    PERFORMER "Владимир Высоцкий"
    REM COMPOSER ""
    FLAGS DCP
    INDEX 00 03:27:42
    INDEX 01 03:29:42
  TRACK 03 AUDIO
    TITLE "Баллада о правде и лжи"
    PERFORMER "Владимир Высоцкий"
    REM COMPOSER ""
    FLAGS DCP
    INDEX 00 11:07:62
    INDEX 01 11:09:62
  TRACK 04 AUDIO
    TITLE "Канатоходец"
    PERFORMER "Владимир Высоцкий"
    REM COMPOSER ""
    FLAGS DCP
    INDEX 00 15:30:72
    INDEX 01 15:32:72
  TRACK 05 AUDIO
    TITLE "Баллада о детстве"
    PERFORMER "Владимир Высоцкий"
    REM COMPOSER ""
    FLAGS DCP
    INDEX 00 19:10:27
    INDEX 01 19:12:27
  TRACK 06 AUDIO
    TITLE "Две судьбы"
    PERFORMER "Владимир Высоцкий"
    REM COMPOSER ""
    FLAGS DCP
    INDEX 00 24:38:50
    INDEX 01 24:40:50
  TRACK 07 AUDIO
    TITLE "Тот, кто раньше с нею был"
    PERFORMER "Владимир Высоцкий"
    REM COMPOSER ""
    FLAGS DCP
    INDEX 00 29:51:47
    INDEX 01 29:53:47
  TRACK 08 AUDIO
    TITLE "Бег иноходца"
    PERFORMER "Владимир Высоцкий"
    REM COMPOSER ""
    FLAGS DCP
    INDEX 00 32:39:25
    INDEX 01 32:41:25
  TRACK 09 AUDIO
    TITLE "На Большом Каретном"
    PERFORMER "Владимир Высоцкий"
    REM COMPOSER ""
    FLAGS DCP
    INDEX 00 34:58:62
    INDEX 01 35:00:62
  TRACK 10 AUDIO
    TITLE "Rien Ne Va, Pluse Rien Ne Va"
    PERFORMER "Владимир Высоцкий"
    REM COMPOSER ""
    FLAGS DCP
    INDEX 00 37:11:50
    INDEX 01 37:13:50
  TRACK 11 AUDIO
    TITLE "La Fin Du Bal"
    PERFORMER "Владимир Высоцкий"
    REM COMPOSER ""
    FLAGS DCP
    INDEX 00 41:02:15
    INDEX 01 41:04:15

Этот торрент недоступен для скачивания без регистрации, однако доступен по публичной magnet-ссылке (источники с публичных трекеров). Перед использованием ссылки прочтите, пожалуйста Пользовательское соглашение, а также как можно дольше оставайтесь на раздаче! Для того, чтобы скачать сам торрент-файл (который видит больше источников), а также для того, чтобы поблагодарить релизера, вам необходимо зарегистрироваться. Если регистрироваться лень - вы можете также попробовать скачать релиз по нашим партнерским ссылкам ниже. Кроме того, зарегистрированным пользователям не показывается всплывающая реклама при скачивании.

[underverse.me].t82492.torrent
Трекер: Зарегистрирован   [ 11.05.2017 01:57 ]  

Статус: проверено (by Бишеп at 11.05.2017 01:59)
Поблагодарили: 2 человека
Тип торрента: публичный - доступные источники с открытых трекеров: 
Размер: 255 MB (занимает 0,06 DVDR, для записи нужно 1 болванка DVDR/RW)
 
 
Похожие темы
Форум Тема Автор Торрент Отв. Посл. сооб.
Авторские песни, Барды (Авторская песня) Владимир Высоцкий - Полная коллекция (2009) [MP3, 320 kbps] Добрый жмот
6 | 2

11 | 5763

78

31.07.2013 07:22

Авторские песни, Барды (Авторская песня) Тимур Шаов - О чем молчал Герасим... (2010) [MP3, 320 kbps] KonKoSerg
9 | 0

4 | 2522

25

24.08.2013 06:03

Авторские песни, Барды (Авторская песня) Татьяна и Сергей Никитины - Городок, что я выдумал (2011) [MP3, 320 kbps] KonKoSerg
2 | 1

1 | 2786

39

11.05.2013 10:18

Авторские песни, Барды (Авторская песня) Владимир Высоцкий - Дискография [22 СD] (2001-2007) [MP3, 320 CBR] vovanig
2 | 0

2 | 3342

56

07.08.2014 19:18

Авторские песни, Барды (Авторская песня) Семён Слепаков - Альбом 1 (2012) [MP3, 320 kbps CBR] Бишеп
3 | 0

1 | 1972

53

11.05.2013 07:53

Авторские песни, Барды (Авторская песня, Фолк) Никола Емелин (Емеля) - Дискография (6 альбомов) (1989 - 2011) [MP3, 64-320 kbps] gregsib
11 | 0

1 | 1919

22

05.07.2013 18:48

Авторские песни, Барды (Авторская песня) Вячеслав Мясников (Уральские пельмени) - Сборник песен (2014) [MP3, 128-320 kbps CBR] terra07
1 | 0

1 | 2595

42

09.12.2015 14:37

Авторские песни, Барды (Авторская песня) Владимир Высоцкий - Спасибо, что живой. Песни из кинофильма... - и не только (2012) [MP3, 320 kbps CBR] valera87
1 | 0

0 | 1183

7

14.03.2015 16:31

Авторские песни, Барды (Lossless) (Авторская песня) Владимир Высоцкий - Grand Collection. Часть 1 / Часть 2 (2004) [FLAC (Tracks+.CUE), lossless] garry
0 | 0

1 | 1792

12

21.04.2012 07:06

# Авторские песни, Барды (Lossless) (Авторская песня) Евгений Баранник - На Прорезной (2010) [FLAC (Tracks+.CUE), lossless] garry
0 | 0

0 | 2375

1

20.02.2012 18:25


Яндекс.Метрика powered by Sphinx


В Н И М А Н И Е
Сайт не распространяет и не хранит электронные версии произведений, а лишь бесплатно и без коммерческой выгоды (не требуя взамен платы,
SMS и т.д.) предоставляет доступ к создаваемому пользователями каталогу ссылок на торрент-файлы, которые содержат только списки хеш-сумм.
Убедительная просьба с жалобами обращаться напрямую к пользователю, разместившему торрент файл.

Вверх