Loading...
Error

(Disco) VA - Автомузыка Магия Disco (2003) [FLAC (Tracks+.CUE), Lossless]

Статистика раздачи
Размер:  415 MB   |    Зарегистрирован:  2 года 2 месяца   |    Скачан:  6 раз
Сидов:  1  |  0 KB/s  ]   Личеров:  0  |  0 KB/s  ]

* - сиды/пиры с внешних источников

   
 
Автор Сообщение

Бишеп Пол:Муж

03-Апр-2012 09:15

VA - Автомузыка Магия Disco

Жанр: Disco
Год выпуска: 2003
Источник: CD
Производитель диска: ПолиФон PF-018
Аудиокодек: FLAC
Тип рипа: Tracks+.CUE
Битрейт аудио: lossless
Продолжительность: 01:03:05


Треклист:
01. Boney M. - Sunny
02. Bananarama - Venus
03. Belle Epoque - Miss Broadway
04. Euraption - One Way Ticker
05. Boney M. - Kalimba De Luna
06. Baccara - Sarry, I'm A Lady
07. Arabesque - Midnight Dancer
08. Gloria Gaynor - I Will Survive
09. Bee Gees - Tragedy
10. Belle Epoque - Bamalama
11. Maywood - You Are The One
12. Bee Gees - Reaching Out

Код:

Exact Audio Copy V1.0 beta 3 from 29. August 2011

EAC extraction logfile from 27. July 2015, 13:13

Various Artists / Автомузыка Магия Disco

Used drive  : TSSTcorpCDDVDW SH-224DB   Adapter: 0  ID: 1

Read mode               : Secure
Utilize accurate stream : Yes
Defeat audio cache      : Yes
Make use of C2 pointers : No

Read offset correction                      : 6
Overread into Lead-In and Lead-Out          : No
Fill up missing offset samples with silence : Yes
Delete leading and trailing silent blocks   : No
Null samples used in CRC calculations       : Yes
Used interface                              : Installed external ASPI interface
Gap handling                                : Appended to previous track

Used output format              : User Defined Encoder
Selected bitrate                : 1024 kBit/s
Quality                         : High
Add ID3 tag                     : No
Command line compressor         : D:\Program Files\Foobar2000\encoders\flac.exe
Additional command line options :  -V -8 -T "Date=%year%" -T "Genre=%genre%" %source%

TOC of the extracted CD

     Track |   Start  |  Length  | Start sector | End sector
    ---------------------------------------------------------
        1  |  0:00.00 |  4:02.61 |         0    |    18210   
        2  |  4:02.61 |  3:39.65 |     18211    |    34700   
        3  |  7:42.51 |  7:38.54 |     34701    |    69104   
        4  | 15:21.30 |  3:37.32 |     69105    |    85411   
        5  | 18:58.62 |  7:20.30 |     85412    |   118441   
        6  | 26:19.17 |  3:41.39 |    118442    |   135055   
        7  | 30:00.56 |  3:43.25 |    135056    |   151805   
        8  | 33:44.06 |  4:52.32 |    151806    |   173737   
        9  | 38:36.38 |  5:07.01 |    173738    |   196763   
       10  | 43:43.39 | 11:55.43 |    196764    |   250431   
       11  | 55:39.07 |  3:20.04 |    250432    |   265435   
       12  | 58:59.11 |  4:07.08 |    265436    |   283968   

Track  1

     Filename D:\Desktop\VA - Автомузыка Магия Disco (2003)\01. Boney M. - Sunny.wav

     Pre-gap length  0:00:02.00

     Peak level 96.6 %
     Extraction speed 4.3 X
     Track quality 100.0 %
     Test CRC 54EF8BB5
     Copy CRC 54EF8BB5
     Accurately ripped (confidence 1)  [5E9184D8]  (AR v2)
     Copy OK

Track  2

     Filename D:\Desktop\VA - Автомузыка Магия Disco (2003)\02. Bananarama - Venus.wav

     Pre-gap length  0:00:02.00

     Peak level 97.9 %
     Extraction speed 4.6 X
     Track quality 100.0 %
     Test CRC 4EE3FEDB
     Copy CRC 4EE3FEDB
     Accurately ripped (confidence 1)  [3CA5B2F5]  (AR v2)
     Copy OK

Track  3

     Filename D:\Desktop\VA - Автомузыка Магия Disco (2003)\03. Belle Epoque - Miss Broadway.wav

     Pre-gap length  0:00:02.00

     Peak level 99.7 %
     Extraction speed 5.7 X
     Track quality 100.0 %
     Test CRC D14CB51B
     Copy CRC D14CB51B
     Accurately ripped (confidence 1)  [78E32105]  (AR v2)
     Copy OK

Track  4

     Filename D:\Desktop\VA - Автомузыка Магия Disco (2003)\04. Euraption - One Way Ticker.wav

     Pre-gap length  0:00:02.00

     Peak level 99.1 %
     Extraction speed 1.9 X
     Track quality 99.9 %
     Test CRC E995A26C
     Copy CRC E995A26C
     Accurately ripped (confidence 1)  [F12C51C3]  (AR v2)
     Copy OK

Track  5

     Filename D:\Desktop\VA - Автомузыка Магия Disco (2003)\05. Boney M. - Kalimba De Luna.wav

     Pre-gap length  0:00:02.00

     Peak level 96.6 %
     Extraction speed 2.7 X
     Track quality 100.0 %
     Test CRC AD60E70B
     Copy CRC AD60E70B
     Accurately ripped (confidence 1)  [203999FC]  (AR v2)
     Copy OK

Track  6

     Filename D:\Desktop\VA - Автомузыка Магия Disco (2003)\06. Baccara - Sarry, I'm A Lady.wav

     Pre-gap length  0:00:02.00

     Peak level 100.0 %
     Extraction speed 2.7 X
     Track quality 100.0 %
     Test CRC A5AA1F6A
     Copy CRC A5AA1F6A
     Accurately ripped (confidence 1)  [0440CE66]  (AR v2)
     Copy OK

Track  7

     Filename D:\Desktop\VA - Автомузыка Магия Disco (2003)\07. Arabesque - Midnight Dancer.wav

     Pre-gap length  0:00:02.00

     Peak level 65.8 %
     Extraction speed 2.7 X
     Track quality 100.0 %
     Test CRC 5509740C
     Copy CRC 5509740C
     Accurately ripped (confidence 1)  [52AB8ADA]  (AR v2)
     Copy OK

Track  8

     Filename D:\Desktop\VA - Автомузыка Магия Disco (2003)\08. Gloria Gaynor - I Will Survive.wav

     Pre-gap length  0:00:02.00

     Peak level 100.0 %
     Extraction speed 3.0 X
     Track quality 100.0 %
     Test CRC 406B9E32
     Copy CRC 406B9E32
     Accurately ripped (confidence 1)  [5EEC84BE]  (AR v2)
     Copy OK

Track  9

     Filename D:\Desktop\VA - Автомузыка Магия Disco (2003)\09. Bee Gees - Tragedy.wav

     Pre-gap length  0:00:02.00

     Peak level 98.3 %
     Extraction speed 3.1 X
     Track quality 100.0 %
     Test CRC CAC4D963
     Copy CRC CAC4D963
     Accurately ripped (confidence 1)  [F8120C7E]  (AR v2)
     Copy OK

Track 10

     Filename D:\Desktop\VA - Автомузыка Магия Disco (2003)\10. Belle Epoque - Bamalama.wav

     Pre-gap length  0:00:02.00

     Peak level 100.0 %
     Extraction speed 3.6 X
     Track quality 100.0 %
     Test CRC 1AA7DAB0
     Copy CRC 1AA7DAB0
     Accurately ripped (confidence 1)  [B1799997]  (AR v2)
     Copy OK

Track 11

     Filename D:\Desktop\VA - Автомузыка Магия Disco (2003)\11. Maywood - You Are The One.wav

     Pre-gap length  0:00:02.00

     Peak level 100.0 %
     Extraction speed 3.3 X
     Track quality 100.0 %
     Test CRC ACE0F4D0
     Copy CRC ACE0F4D0
     Accurately ripped (confidence 1)  [9DCD2584]  (AR v2)
     Copy OK

Track 12

     Filename D:\Desktop\VA - Автомузыка Магия Disco (2003)\12. Bee Gees - Reaching Out.wav

     Pre-gap length  0:00:02.00

     Peak level 96.2 %
     Extraction speed 3.5 X
     Track quality 100.0 %
     Test CRC A9603401
     Copy CRC A9603401
     Accurately ripped (confidence 1)  [6A8238B5]  (AR v2)
     Copy OK

All tracks accurately ripped

No errors occurred

End of status report

==== Log checksum 0BF7C7DA1A271E435DA67227FA953AFFF298B740457F47367760B1A9F7AAD807 ====

Код:

REM GENRE Disco
REM DATE 2003
REM DISCID 870ECA0C
REM COMMENT "ExactAudioCopy v1.0b3"
PERFORMER "Various Artists"
TITLE "Автомузыка Магия Disco"
FILE "01. Boney M. - Sunny.wav" WAVE
  TRACK 01 AUDIO
    TITLE "Boney M. - Sunny"
    PERFORMER "Various Artists"
    FLAGS DCP
    INDEX 01 00:00:00
  TRACK 02 AUDIO
    TITLE "Bananarama - Venus"
    PERFORMER "Various Artists"
    FLAGS DCP
    INDEX 00 04:00:61
FILE "02. Bananarama - Venus.wav" WAVE
    INDEX 01 00:00:00
  TRACK 03 AUDIO
    TITLE "Belle Epoque - Miss Broadway"
    PERFORMER "Various Artists"
    FLAGS DCP
    INDEX 00 03:37:65
FILE "03. Belle Epoque - Miss Broadway.wav" WAVE
    INDEX 01 00:00:00
  TRACK 04 AUDIO
    TITLE "Euraption - One Way Ticker"
    PERFORMER "Various Artists"
    FLAGS DCP
    INDEX 00 07:36:54
FILE "04. Euraption - One Way Ticker.wav" WAVE
    INDEX 01 00:00:00
  TRACK 05 AUDIO
    TITLE "Boney M. - Kalimba De Luna"
    PERFORMER "Various Artists"
    FLAGS DCP
    INDEX 00 03:35:32
FILE "05. Boney M. - Kalimba De Luna.wav" WAVE
    INDEX 01 00:00:00
  TRACK 06 AUDIO
    TITLE "Baccara - Sarry, I'm A Lady"
    PERFORMER "Various Artists"
    FLAGS DCP
    INDEX 00 07:18:30
FILE "06. Baccara - Sarry, I'm A Lady.wav" WAVE
    INDEX 01 00:00:00
  TRACK 07 AUDIO
    TITLE "Arabesque - Midnight Dancer"
    PERFORMER "Various Artists"
    FLAGS DCP
    INDEX 00 03:39:39
FILE "07. Arabesque - Midnight Dancer.wav" WAVE
    INDEX 01 00:00:00
  TRACK 08 AUDIO
    TITLE "Gloria Gaynor - I Will Survive"
    PERFORMER "Various Artists"
    FLAGS DCP
    INDEX 00 03:41:25
FILE "08. Gloria Gaynor - I Will Survive.wav" WAVE
    INDEX 01 00:00:00
  TRACK 09 AUDIO
    TITLE "Bee Gees - Tragedy"
    PERFORMER "Various Artists"
    FLAGS DCP
    INDEX 00 04:50:32
FILE "09. Bee Gees - Tragedy.wav" WAVE
    INDEX 01 00:00:00
  TRACK 10 AUDIO
    TITLE "Belle Epoque - Bamalama"
    PERFORMER "Various Artists"
    FLAGS DCP
    INDEX 00 05:05:01
FILE "10. Belle Epoque - Bamalama.wav" WAVE
    INDEX 01 00:00:00
  TRACK 11 AUDIO
    TITLE "Maywood - You Are The One"
    PERFORMER "Various Artists"
    FLAGS DCP
    INDEX 00 11:53:43
FILE "11. Maywood - You Are The One.wav" WAVE
    INDEX 01 00:00:00
  TRACK 12 AUDIO
    TITLE "Bee Gees - Reaching Out"
    PERFORMER "Various Artists"
    FLAGS DCP
    INDEX 00 03:18:04
FILE "12. Bee Gees - Reaching Out.wav" WAVE
    INDEX 01 00:00:00

Этот торрент недоступен для скачивания без регистрации, однако доступен по публичной magnet-ссылке (источники с публичных трекеров). Перед использованием ссылки прочтите, пожалуйста Пользовательское соглашение, а также как можно дольше оставайтесь на раздаче! Для того, чтобы скачать сам торрент-файл (который видит больше источников), а также для того, чтобы поблагодарить релизера, вам необходимо зарегистрироваться. Если регистрироваться лень - вы можете также попробовать скачать релиз по нашим партнерским ссылкам ниже.

[underverse.su].t57006.torrent
Трекер: Зарегистрирован   [ 13.08.2015 11:43 ]  

Статус: проверено (by Бишеп at 13.08.2015 11:44)
Поблагодарили: пока никто не поблагодарил...
Тип торрента: публичный - доступные источники с открытых трекеров: 
Размер: 415 MB (занимает 0,09 DVDR, для записи нужно 1 болванка DVDR/RW)
 
 
Похожие темы
Форум Тема Автор Торрент Отв. Посл. сооб.
Сборники Pop, Disco, Dance (Disco) VA - Звёзды дискотек (vol. 2) (2007) [MP3, 320 kbps] snegir
0 | 0

3 | 1865

35

14.07.2012 14:50

Сборники Pop, Disco, Dance (Disco) VA - 100 лучших хитов 80-х - 4 (2015) [MP3, 256 kbps CBR] Magnat
2 | 0

0 | 473

9

19.09.2016 18:57

# Неофициальные и внежанровые сборники (Disco) VA - Звезды дискотек (vol. 1) (2006) [MP3, 320 kbps] snegir
0 | 0

4 | 3488

7

29.01.2014 06:55

Сборники (Disco) VA - Фестиваль Авторадио. Дискотека 80-х (часть 1) (2003) [FLAC (Image+.CUE), Lossless] Бишеп
1 | 4

0 | 2357

1

20.04.2012 18:00

Сборники (Disco) VA - Turbo Disco International - Vol. 1 (2004) [FLAC (Tracks+.CUE), Lossless] Бишеп
1 | 0

0 | 1087

6

08.05.2012 14:21

Сборники (Disco) VA - Turbo Disco International - Vol. 2 (2004) [FLAC (Tracks+.CUE), Lossless] Бишеп
1 | 0

0 | 971

4

08.05.2012 14:29

Сборники (Disco) VA - Turbo Disco - Лучшие Хиты Дискотек (2001) [FLAC (Tracks+.CUE), Lossless] Бишеп
1 | 0

0 | 1918

7

11.06.2012 05:28

Сборники (Disco) VA - The Very Best Of Disco (2001) [FLAC (Tracks+.CUE), Lossless] Бишеп
1 | 0

0 | 1268

8

21.06.2012 18:18

Сборники (Disco) VA - Disco Fever (2001) [FLAC (Tracks+.CUE), Lossless] Бишеп
0 | 0

0 | 551

4

01.02.2016 16:35



Последний раз редактировалось: Бишеп (13.08.2015 11:43), всего редактировалось 5 раз(а)

Бишеп Пол:Муж

04-Май-2014 05:20

ТФ обновлён по тех. причинам.

Яндекс.Метрика powered by Sphinx


В Н И М А Н И Е
Сайт не распространяет и не хранит электронные версии произведений, а лишь бесплатно и без коммерческой выгоды (не требуя взамен платы,
SMS и т.д.) предоставляет доступ к создаваемому пользователями каталогу ссылок на торрент-файлы, которые содержат только списки хеш-сумм.
Убедительная просьба с жалобами обращаться напрямую к пользователю, разместившему торрент файл.

Вверх