Loading...
Error

(Авторская песня) Евгений Баранник - На Прорезной (2010) [FLAC (Tracks+.CUE), lossless]

Статистика раздачи
Размер:  172 MB   |    Зарегистрирован:  1 год 2 месяца   |    Скачан:  1 раз

Полного источника не было: 56 минут

Сидов:  0  |  0 KB/s  ]   Личеров:  0  |  0 KB/s  ]

* - сиды/пиры с внешних источников

   
 
Автор Сообщение

garry Пол:Муж

20-Фев-2012 18:25

Евгений Баранник - На Прорезной

Жанр: Авторская песня
Год выпуска: 2010
Источник: CD
Производитель: Простір музики
Аудиокодек: FLAC
Тип рипа: Tracks+.CUE
Битрейт: lossless
Продолжительность: 00:34:55

Треклист:

01 - На Прорезной
02 - Газировочка
03 - Город
04 - Хмельной вальс
05 - Таежная зима
06 - Самолетик
07 - Сквозь облака
08 - Понедельник
09 - Самая красивая
10 - Черный квадрат
Exact Audio Copy V1.3 from 2. September 2016

EAC extraction logfile from 27. February 2017, 19:12

Евгений Баранник / На Прорезной

Used drive : SONY CD-RW CRX230ED Adapter: 1 ID: 1

Read mode : Secure
Utilize accurate stream : Yes
Defeat audio cache : Yes
Make use of C2 pointers : No

Read offset correction : 6
Overread into Lead-In and Lead-Out : No
Fill up missing offset samples with silence : Yes
Delete leading and trailing silent blocks : No
Null samples used in CRC calculations : Yes
Used interface : Native Win32 interface for Win NT & 2000
Gap handling : Appended to previous track

Used output format : User Defined Encoder
Selected bitrate : 1024 kBit/s
Quality : High
Add ID3 tag : No
Command line compressor : C:\Program Files (x86)\Exact Audio Copy\Flac\flac.exe
Additional command line options : -V -8 -T "Genre=%genre%" -T "Artist=%artist%" -T "Title=%title%" -T "Album=%albumtitle%" -T "Date=%year%" -T "Tracknumber=%tracknr%" -T "Comment=%comment%" %source%

TOC of the extracted CD

Track | Start | Length | Start sector | End sector
---------------------------------------------------------
1 | 0:00.00 | 3:24.35 | 0 | 15334
2 | 3:24.35 | 3:51.42 | 15335 | 32701
3 | 7:16.02 | 4:29.34 | 32702 | 52910
4 | 11:45.36 | 2:53.30 | 52911 | 65915
5 | 14:38.66 | 4:13.67 | 65916 | 84957
6 | 18:52.58 | 3:18.64 | 84958 | 99871
7 | 22:11.47 | 2:26.60 | 99872 | 110881
8 | 24:38.32 | 3:24.13 | 110882 | 126194
9 | 28:02.45 | 3:07.55 | 126195 | 140274
10 | 31:10.25 | 3:45.36 | 140275 | 157185

Track 1

Filename D:\!Temp\01 - На Прорезной.wav

Pre-gap length 0:00:02.00

Peak level 100.0 %
Extraction speed 4.4 X
Track quality 100.0 %
Test CRC D58D0755
Copy CRC D58D0755
Track not present in AccurateRip database
Copy OK

Track 2

Filename D:\!Temp\02 - Газировочка.wav

Pre-gap length 0:00:02.00

Peak level 100.0 %
Extraction speed 5.0 X
Track quality 100.0 %
Test CRC B62F051A
Copy CRC B62F051A
Track not present in AccurateRip database
Copy OK

Track 3

Filename D:\!Temp\03 - Город.wav

Pre-gap length 0:00:02.00

Peak level 100.0 %
Extraction speed 5.6 X
Track quality 100.0 %
Test CRC E6D2A3E5
Copy CRC E6D2A3E5
Track not present in AccurateRip database
Copy OK

Track 4

Filename D:\!Temp\04 - Хмельной вальс.wav

Pre-gap length 0:00:02.00

Peak level 100.0 %
Extraction speed 5.6 X
Track quality 100.0 %
Test CRC 6A7D95D6
Copy CRC 6A7D95D6
Track not present in AccurateRip database
Copy OK

Track 5

Filename D:\!Temp\05 - Таежная зима.wav

Pre-gap length 0:00:02.00

Peak level 100.0 %
Extraction speed 6.2 X
Track quality 100.0 %
Test CRC AE3825BB
Copy CRC AE3825BB
Track not present in AccurateRip database
Copy OK

Track 6

Filename D:\!Temp\06 - Самолетик.wav

Pre-gap length 0:00:02.00

Peak level 100.0 %
Extraction speed 5.0 X
Track quality 99.9 %
Test CRC D16F7ECE
Copy CRC D16F7ECE
Track not present in AccurateRip database
Copy OK

Track 7

Filename D:\!Temp\07 - Сквозь облака.wav

Pre-gap length 0:00:02.00

Peak level 100.0 %
Extraction speed 6.3 X
Track quality 100.0 %
Test CRC 707F8DE8
Copy CRC 707F8DE8
Track not present in AccurateRip database
Copy OK

Track 8

Filename D:\!Temp\08 - Понедельник.wav

Pre-gap length 0:00:02.00

Peak level 100.0 %
Extraction speed 5.5 X
Track quality 99.9 %
Test CRC 59DB572A
Copy CRC 59DB572A
Track not present in AccurateRip database
Copy OK

Track 9

Filename D:\!Temp\09 - Самая красивая.wav

Pre-gap length 0:00:02.00

Peak level 100.0 %
Extraction speed 7.1 X
Track quality 100.0 %
Test CRC FF37527C
Copy CRC FF37527C
Track not present in AccurateRip database
Copy OK

Track 10

Filename D:\!Temp\10 - Черный квадрат.wav

Pre-gap length 0:00:02.00

Peak level 100.0 %
Extraction speed 7.4 X
Track quality 100.0 %
Test CRC 36F3C693
Copy CRC 36F3C693
Track not present in AccurateRip database
Copy OK

None of the tracks are present in the AccurateRip database

No errors occurred

End of status report

---- CUETools DB Plugin V2.1.6

[CTDB TOCID: Et3.wZHodIPzxqNZ8iPgqWOnbEQ-] disk not present in database
Submit result: Et3.wZHodIPzxqNZ8iPgqWOnbEQ- has been uploaded

==== Log checksum 6ED04CD0B8A9E2EE739A43E932180673221A35D091134E0D183ECB380EED0369 ====

Этот торрент недоступен для скачивания без регистрации, однако доступен по публичной magnet-ссылке (источники с публичных трекеров). Перед использованием ссылки прочтите, пожалуйста Пользовательское соглашение, а также как можно дольше оставайтесь на раздаче! Для того, чтобы скачать сам торрент-файл (который видит больше источников), а также для того, чтобы поблагодарить релизера, вам необходимо зарегистрироваться. Если регистрироваться лень - вы можете также попробовать скачать релиз по нашим партнерским ссылкам ниже. Кроме того, зарегистрированным пользователям не показывается всплывающая реклама при скачивании.

[underverse.me].t17106.torrent
Трекер: Зарегистрирован   [ 28.02.2017 16:58 ]  

Статус: # сомнительно (by garry at 28.02.2017 16:59)
Поблагодарили: пока никто не поблагодарил...
Тип торрента: публичный - доступные источники с открытых трекеров: 
Размер: 172 MB (занимает 0,04 DVDR, для записи нужно 1 болванка DVDR/RW)
 
 
Похожие темы
Форум Тема Автор Торрент Отв. Посл. сооб.
Авторские песни, Барды (Авторская песня) Владимир Высоцкий - Полная коллекция (2009) [MP3, 320 kbps] Добрый жмот
6 | 2

11 | 5761

78

31.07.2013 07:22

Авторские песни, Барды (Авторская песня) Тимур Шаов - О чем молчал Герасим... (2010) [MP3, 320 kbps] KonKoSerg
11 | 0

4 | 2520

25

24.08.2013 06:03

Авторские песни, Барды (Авторская песня) Татьяна и Сергей Никитины - Городок, что я выдумал (2011) [MP3, 320 kbps] KonKoSerg
2 | 1

1 | 2785

39

11.05.2013 10:18

Авторские песни, Барды (Авторская песня) Владимир Высоцкий - Дискография [22 СD] (2001-2007) [MP3, 320 CBR] vovanig
2 | 0

2 | 3340

56

07.08.2014 19:18

Авторские песни, Барды (Авторская песня) Семён Слепаков - Альбом 1 (2012) [MP3, 320 kbps CBR] Бишеп
4 | 0

1 | 1971

53

11.05.2013 07:53

Авторские песни, Барды (Авторская песня, Фолк) Никола Емелин (Емеля) - Дискография (6 альбомов) (1989 - 2011) [MP3, 64-320 kbps] gregsib
11 | 0

1 | 1918

22

05.07.2013 18:48

Авторские песни, Барды (Авторская песня) Вячеслав Мясников (Уральские пельмени) - Сборник песен (2014) [MP3, 128-320 kbps CBR] terra07
1 | 0

1 | 2592

42

09.12.2015 14:37

Авторские песни, Барды (Авторская песня) Владимир Высоцкий - Спасибо, что живой. Песни из кинофильма... - и не только (2012) [MP3, 320 kbps CBR] valera87
1 | 0

0 | 1181

7

14.03.2015 16:31

Авторские песни, Барды (Lossless) (Авторская песня) Владимир Высоцкий - Grand Collection. Часть 1 / Часть 2 (2004) [FLAC (Tracks+.CUE), lossless] garry
0 | 0

1 | 1790

12

21.04.2012 07:06

Авторские песни, Барды (Lossless) (Авторская песня) Владимир Высоцкий - Натянутый канат (1996) [FLAC (Image+.CUE), Lossless] Бишеп
1 | 0

0 | 1765

1

06.04.2012 07:04


Яндекс.Метрика powered by Sphinx


В Н И М А Н И Е
Сайт не распространяет и не хранит электронные версии произведений, а лишь бесплатно и без коммерческой выгоды (не требуя взамен платы,
SMS и т.д.) предоставляет доступ к создаваемому пользователями каталогу ссылок на торрент-файлы, которые содержат только списки хеш-сумм.
Убедительная просьба с жалобами обращаться напрямую к пользователю, разместившему торрент файл.

Вверх