Loading...
Error

Дорога к себе (Семён Винокур) [2009 г.,документально-познавательный, HDTVRip 720p]

Статистика раздачи
Размер:  352 MB   |    Зарегистрирован:  5 лет 10 месяцев   |    Скачан:  3 раза

Полного источника не было: 1 год 8 месяцев

Сидов:  0  |  0 KB/s  ]   Личеров:  0  |  0 KB/s  ]

* - сиды/пиры с внешних источников

   
 
Автор Сообщение

krasyarBB 

22-Ноя-2011 10:22

Дорога к себе


Год выпуска: 2009
Страна: Россия

Жанр: документально-познавательный
Продолжительность: 00:24:56

Перевод: не требуется
Субтитры: отсутствуют

Режиссер: Семён Винокур
Продюссер: Белла Высоцкая
В ролях: Михаэль Лайтман (философия PhD, биокибернетика MSc) – ученый-каббалист, член Всемирного Совета Мудрецов, основатель и руководитель Международной Академии Каббалы и Института исследования Каббалы им. Й. Ашалага, профессор онтологии и теории познания

Описание: Минувший 20-ый век сулил нам большие надежды на будущее.
Мы жили в ожидании великих перемен и верили, что технический прогресс освободит нас от тяжелого труда,
обеспечит всем безбедное существование, принесет в мир процветание и счастье.
Большие надежды оказались великой иллюзией.
Ожидаемая свобода обернулась рабством, заковавшим нас в рамки 8-12-часового рабочего дня,
безбедное существование - балансированием на грани нищеты,
счастливый мир - миром войн, терроризма и кризисов.
Почему мы зашли в тупик?
Каково предназначенье человека на земле?
Неужели мы приходим в этот мир только ради страданий?
Этот фильм - это крик,
это призыв к нам, с надеждой, что мы все-таки обретем дорогу к себе - иначе погибнем!

Формат: MP4
Качество: HDTVRip
Видео кодек: AVC(H264)
Аудио кодек: AAC
Видео: 1280x720, 25,000 fps, 1783 Kbps, 0.077 bit/pixel
Аудио: 48 kHz, 2 (L,R) ch, 192 kb/s






Общее
Полное имя : doroga_k_sebe.mp4
Формат : MPEG-4
Профиль формата : Base Media / Version 2
Идентификатор кодека : mp42
Размер файла : 352 Мбайт
Продолжительность : 24 м.
Режим общего битрейта : Переменный
Общий поток : 1974 Кбит/сек
Дата кодирования : UTC 2011-10-07 14:08:13
Дата пометки : UTC 2011-10-07 14:08:21
Программа кодирования : mp4creator 1.6.1d

Видео
Идентификатор : 1
Формат : AVC
Формат/Информация : Advanced Video Codec
Профиль формата : High@L3.0
Параметр CABAC формата : Нет
Параметр ReFrames формата : 1 кадр
Идентификатор кодека : avc1
Идентификатор кодека/Информация : Advanced Video Coding
Продолжительность : 24 м.
Вид битрейта : Переменный
Битрейт : 1783 Кбит/сек
Ширина : 1280 пикселей
Высота : 720 пикселей
Соотношение сторон : 16:9
Режим частоты кадров : Постоянный
Частота кадров : 25,000 кадров/сек
Цветовое пространство : YUV
Субдискретизация насыщенности : 4:2:0
Битовая глубина : 8 бит
Тип развёртки : Прогрессивная
Бит/(Пиксели*Кадры) : 0.077
Размер потока : 318 Мбайт (90%)
Язык : English
Дата кодирования : UTC 2011-10-07 14:08:13
Дата пометки : UTC 2011-10-07 14:08:20

Аудио
Идентификатор : 2
Формат : AAC
Формат/Информация : Advanced Audio Codec
Профиль формата : LC
Идентификатор кодека : 40
Продолжительность : 24 м.
Вид битрейта : Переменный
Битрейт : 192 Кбит/сек
Максимальный битрейт : 221 Кбит/сек
Каналы : 2 канала
Расположение каналов : Front: L R
Частота : 48,0 КГц
Метод сжатия : С потерями
Размер потока : 33,8 Мбайт (10%)
Язык : English
Дата кодирования : UTC 2011-10-07 14:08:20
Дата пометки : UTC 2011-10-07 14:08:21

Этот торрент недоступен для скачивания без регистрации, однако доступен по публичной magnet-ссылке (источники с публичных трекеров). Перед использованием ссылки прочтите, пожалуйста Пользовательское соглашение, а также как можно дольше оставайтесь на раздаче! Для того, чтобы скачать сам торрент-файл (который видит больше источников), а также для того, чтобы поблагодарить релизера, вам необходимо зарегистрироваться. Если регистрироваться лень - вы можете также попробовать скачать релиз по нашим партнерским ссылкам ниже.

[underverse.su].t16510.torrent
Трекер: Зарегистрирован   [ 24.12.2011 16:21 ]  

Статус: проверено (by Паукан at 25.12.2011 01:00)
Поблагодарили: пока никто не поблагодарил...
Тип торрента: публичный - доступные источники с открытых трекеров: 
Размер: 352 MB (занимает 0,08 DVDR, для записи нужно 1 болванка DVDR/RW)
doroga_k_sebe_torrent
 
 

25-Дек-2011 01:05

Топик был перенесен из форума Научно-популярные фильмы в форум Документальное кино HDTV


dj_maxx
 

Яндекс.Метрика powered by Sphinx


В Н И М А Н И Е
Сайт не распространяет и не хранит электронные версии произведений, а лишь бесплатно и без коммерческой выгоды (не требуя взамен платы,
SMS и т.д.) предоставляет доступ к создаваемому пользователями каталогу ссылок на торрент-файлы, которые содержат только списки хеш-сумм.
Убедительная просьба с жалобами обращаться напрямую к пользователю, разместившему торрент файл.

Вверх