Loading...
Error

Источник самопостижения (Семён Винокур) [2004 г.,документально-познавательный, HDTVRip 720p]

Статистика раздачи
Размер:  239 MB   |    Зарегистрирован:  5 лет 10 месяцев   |    Скачан:  2 раза

Полного источника не было: 3 года 11 месяцев

Сидов:  0  |  0 KB/s  ]   Личеров:  0  |  0 KB/s  ]

* - сиды/пиры с внешних источников

   
 
Автор Сообщение

krasyarBB 

22-Ноя-2011 10:14

Источник самопостижения


Год выпуска: 2004
Страна: Израиль

Жанр: документально-познавательный
Продолжительность: 00:16:36

Перевод: не требуется
Субтитры: отсутствуют

Режиссер: Семён Винокур
В ролях: Михаэль Лайтман

Описание: Источник каббалы исходит из самопостижения. Через человека постигается высший мир. А еще точнее – человек постигает мир через себя. Вся история человечества представляет собой по сути именно неосознанные поиски этого Источника. Люди устремляются туда, где как бы «чувствуют» присутствие Высших сил, указывающих на Источник. Удивительным образом сплетается внутреннее постижение с историческими событиями.

Именно поэтому великий каббалист Ари приезжает из Египта в Цфат, город на севере Израиля, где в 16 веке удивительным образом собралось множество постигших каббалистов из Европы и Израиля. Этот источник «ведет, притягивает» всех, чье желание направлено на постижение причин и сил, управляющих нашим миром, на осознание цели человеческой жизни.

Формат: MP4
Качество: HDTVRip
Видео кодек: AVC(H264)
Аудио кодек: AAC
Видео: 1280x720, 25,000 fps, 1823 Kbps, 0.079 bit/pixel
Аудио: 48 kHz, 2 (L,R) ch, 192 kb/s






Общее
Полное имя : istochnik_samopostizhenija.mp4
Формат : MPEG-4
Профиль формата : Base Media / Version 2
Идентификатор кодека : mp42
Размер файла : 239 Мбайт
Продолжительность : 16 м.
Режим общего битрейта : Переменный
Общий поток : 2012 Кбит/сек
Дата кодирования : UTC 2011-10-07 12:25:38
Дата пометки : UTC 2011-10-07 12:25:43
Программа кодирования : mp4creator 1.6.1d

Видео
Идентификатор : 1
Формат : AVC
Формат/Информация : Advanced Video Codec
Профиль формата : High@L3.0
Параметр CABAC формата : Нет
Параметр ReFrames формата : 1 кадр
Идентификатор кодека : avc1
Идентификатор кодека/Информация : Advanced Video Coding
Продолжительность : 16 м.
Вид битрейта : Переменный
Битрейт : 1823 Кбит/сек
Ширина : 1280 пикселей
Высота : 720 пикселей
Соотношение сторон : 16:9
Режим частоты кадров : Постоянный
Частота кадров : 25,000 кадров/сек
Цветовое пространство : YUV
Субдискретизация насыщенности : 4:2:0
Битовая глубина : 8 бит
Тип развёртки : Прогрессивная
Бит/(Пиксели*Кадры) : 0.079
Размер потока : 217 Мбайт (91%)
Язык : English
Дата кодирования : UTC 2011-10-07 12:25:38
Дата пометки : UTC 2011-10-07 12:25:42

Аудио
Идентификатор : 2
Формат : AAC
Формат/Информация : Advanced Audio Codec
Профиль формата : LC
Идентификатор кодека : 40
Продолжительность : 16 м.
Вид битрейта : Переменный
Битрейт : 187 Кбит/сек
Максимальный битрейт : 270 Кбит/сек
Каналы : 2 канала
Расположение каналов : Front: L R
Частота : 48,0 КГц
Метод сжатия : С потерями
Размер потока : 22,2 Мбайт (9%)
Язык : English
Дата кодирования : UTC 2011-10-07 12:25:42
Дата пометки : UTC 2011-10-07 12:25:42

Этот торрент недоступен для скачивания без регистрации, однако доступен по публичной magnet-ссылке (источники с публичных трекеров). Перед использованием ссылки прочтите, пожалуйста Пользовательское соглашение, а также как можно дольше оставайтесь на раздаче! Для того, чтобы скачать сам торрент-файл (который видит больше источников), а также для того, чтобы поблагодарить релизера, вам необходимо зарегистрироваться. Если регистрироваться лень - вы можете также попробовать скачать релиз по нашим партнерским ссылкам ниже.

[underverse.su].t16512.torrent
Трекер: Зарегистрирован   [ 24.12.2011 16:25 ]  

Статус: проверено (by Паукан at 25.12.2011 01:01)
Поблагодарили: пока никто не поблагодарил...
Тип торрента: публичный - доступные источники с открытых трекеров: 
Размер: 239 MB (занимает 0,05 DVDR, для записи нужно 1 болванка DVDR/RW)
istochnik_samopostizhenija_torrent
 
 

25-Дек-2011 01:05

Топик был перенесен из форума Научно-популярные фильмы в форум Документальное кино HDTV


dj_maxx
 

Яндекс.Метрика powered by Sphinx


В Н И М А Н И Е
Сайт не распространяет и не хранит электронные версии произведений, а лишь бесплатно и без коммерческой выгоды (не требуя взамен платы,
SMS и т.д.) предоставляет доступ к создаваемому пользователями каталогу ссылок на торрент-файлы, которые содержат только списки хеш-сумм.
Убедительная просьба с жалобами обращаться напрямую к пользователю, разместившему торрент файл.

Вверх