Loading...
Error

Прикосновение к истине (Семён Винокур) [2007 г.,документально-познавательный,философия, HDTVRip 720p]

Статистика раздачи
Размер:  1,15 GB   |    Зарегистрирован:  5 лет 10 месяцев   |    Скачан:  3 раза

Полного источника не было: 3 года 11 месяцев

Сидов:  0  |  0 KB/s  ]   Личеров:  0  |  0 KB/s  ]

* - сиды/пиры с внешних источников

   
 
Автор Сообщение

krasyarBB 

22-Ноя-2011 10:09

Прикосновение к истине


Год выпуска: 2007
Страна: Израиль
Студия: ARI Films

Жанр: документально-познавательный,философия
Продолжительность: 01:23:10

Перевод: не требуется
Субтитры: отсутствуют

Режиссер: Семён Винокур
ПродюссерЫ: Павел Ярославский,Александр Козлов
В ролях: Михаэль Лайтман

Описание: Фильм-знакомство, фильм-открытие.
Наш современник волею судьбы оказался преемником каббалистической школы, которой насчитывается уже 4000 лет. Его приглашают в самые популярные ток-шоу, теле- и радиопередачи, его интервьюируют самые популярные журналисты, цитируют и называют мудрецом самые известные ученые. Зритель видит на экране человека, энергия и интеллект которого поражают, простота и искренность обезоруживают. Это ученый-каббалист.

Формат: MP4
Качество: HDTVRip
Видео кодек: AVC(H264)
Аудио кодек: AAC
Видео: 1280x720, 25,000 fps, 1802-1785 Kbps, 0.078.0-077 bit/pixel
Аудио: 48 kHz, 2 (L,R) ch, 192-185 kb/s






Общее
Полное имя : prikosnovenie_k_istine_1.mp4
Формат : MPEG-4
Профиль формата : Base Media / Version 2
Идентификатор кодека : mp42
Размер файла : 533 Мбайт
Продолжительность : 37 м.
Режим общего битрейта : Переменный
Общий поток : 1993 Кбит/сек
Дата кодирования : UTC 2011-10-08 06:43:21
Дата пометки : UTC 2011-10-08 06:43:52
Программа кодирования : mp4creator 1.6.1d

Видео
Идентификатор : 1
Формат : AVC
Формат/Информация : Advanced Video Codec
Профиль формата : High@L3.0
Параметр CABAC формата : Нет
Параметр ReFrames формата : 1 кадр
Идентификатор кодека : avc1
Идентификатор кодека/Информация : Advanced Video Coding
Продолжительность : 37 м.
Вид битрейта : Переменный
Битрейт : 1802 Кбит/сек
Ширина : 1280 пикселей
Высота : 720 пикселей
Соотношение сторон : 16:9
Режим частоты кадров : Постоянный
Частота кадров : 25,000 кадров/сек
Цветовое пространство : YUV
Субдискретизация насыщенности : 4:2:0
Битовая глубина : 8 бит
Тип развёртки : Прогрессивная
Бит/(Пиксели*Кадры) : 0.078
Размер потока : 482 Мбайт (90%)
Язык : English
Дата кодирования : UTC 2011-10-08 06:43:21
Дата пометки : UTC 2011-10-08 06:43:33

Аудио
Идентификатор : 2
Формат : AAC
Формат/Информация : Advanced Audio Codec
Профиль формата : LC
Идентификатор кодека : 40
Продолжительность : 37 м.
Вид битрейта : Переменный
Битрейт : 192 Кбит/сек
Максимальный битрейт : 244 Кбит/сек
Каналы : 2 канала
Расположение каналов : Front: L R
Частота : 48,0 КГц
Метод сжатия : С потерями
Размер потока : 50,6 Мбайт (9%)
Язык : English
Дата кодирования : UTC 2011-10-08 06:43:34
Дата пометки : UTC 2011-10-08 06:43:52

Общее
Полное имя : prikosnovenie_k_istine_2.mp4
Формат : MPEG-4
Профиль формата : Base Media / Version 2
Идентификатор кодека : mp42
Размер файла : 648 Мбайт
Продолжительность : 45 м.
Режим общего битрейта : Переменный
Общий поток : 1972 Кбит/сек
Дата кодирования : UTC 2011-11-14 06:55:30
Дата пометки : UTC 2011-11-14 06:55:55
Программа кодирования : mp4creator 1.6.1d

Видео
Идентификатор : 1
Формат : AVC
Формат/Информация : Advanced Video Codec
Профиль формата : High@L3.0
Параметр CABAC формата : Нет
Параметр ReFrames формата : 1 кадр
Идентификатор кодека : avc1
Идентификатор кодека/Информация : Advanced Video Coding
Продолжительность : 45 м.
Вид битрейта : Переменный
Битрейт : 1785 Кбит/сек
Ширина : 1280 пикселей
Высота : 720 пикселей
Соотношение сторон : 16:9
Режим частоты кадров : Постоянный
Частота кадров : 25,000 кадров/сек
Цветовое пространство : YUV
Субдискретизация насыщенности : 4:2:0
Битовая глубина : 8 бит
Тип развёртки : Прогрессивная
Бит/(Пиксели*Кадры) : 0.077
Размер потока : 586 Мбайт (91%)
Язык : English
Дата кодирования : UTC 2011-11-14 06:55:30
Дата пометки : UTC 2011-11-14 06:55:54

Аудио
Идентификатор : 2
Формат : AAC
Формат/Информация : Advanced Audio Codec
Профиль формата : LC
Идентификатор кодека : 40
Продолжительность : 45 м.
Вид битрейта : Переменный
Битрейт : 185 Кбит/сек
Максимальный битрейт : 257 Кбит/сек
Каналы : 2 канала
Расположение каналов : Front: L R
Частота : 48,0 КГц
Метод сжатия : С потерями
Размер потока : 60,6 Мбайт (9%)
Язык : English
Дата кодирования : UTC 2011-11-14 06:55:54
Дата пометки : UTC 2011-11-14 06:55:55

Этот торрент недоступен для скачивания без регистрации, однако доступен по публичной magnet-ссылке (источники с публичных трекеров). Перед использованием ссылки прочтите, пожалуйста Пользовательское соглашение, а также как можно дольше оставайтесь на раздаче! Для того, чтобы скачать сам торрент-файл (который видит больше источников), а также для того, чтобы поблагодарить релизера, вам необходимо зарегистрироваться. Если регистрироваться лень - вы можете также попробовать скачать релиз по нашим партнерским ссылкам ниже.

[underverse.su].t16514.torrent
Трекер: Зарегистрирован   [ 24.12.2011 16:28 ]  

Статус: проверено (by Паукан at 25.12.2011 01:01)
Поблагодарили: пока никто не поблагодарил...
Тип торрента: публичный - доступные источники с открытых трекеров: 
Размер: 1,15 GB (занимает 0,26 DVDR, для записи нужно 1 болванка DVDR/RW)
prikosnovenie_k_istine_torrent
 
 
Похожие темы
Форум Тема Автор Торрент Отв. Посл. сооб.
Зарубежное кино [DVDRip, Low-Res HDRip, и т.д.] Прикосновение греха / A touch of sin / Tian zhu ding (Цзя Чжанкэ / Jia Zhangke) [2013 г., криминал, драма, HDRip] VO (Franek Monk) 90ytr90
0 | 0

0 | 517

8

13.04.2014 16:23

Зарубежное кино [DVDRip, Low-Res HDRip, и т.д.] Прикосновение огнём / Mania Days / Touched With Fire (Пол Далио) [2015 г., драма, мелодрама, HDRip] MVO makkol
10 | 0

0 | 1426

4

12.06.2016 22:27

Зарубежное кино [HDDVDRip / BDRip / WEB-DL / HDTV 1080/720р] Прикосновение греха / A touch of sin / Tian zhu ding (Цзя Чжанкэ / Jia Zhangke) [2013 г., криминал, драма, BDRip 720p] VO (Franek Monk) + Original (Chi) + Sub (Eng) 90ytr90
0 | 0

0 | 423

3

13.04.2014 17:29

Зарубежное кино [HDDVDRip / BDRip / WEB-DL / HDTV 1080/720р] Прикосновение греха / A touch of sin / Tian zhu ding (Цзя Чжанкэ / Jia Zhangke) [2013 г., криминал, драма, BDRip 1080p] VO (Franek Monk) + Original (Chi) + Sub (Eng) 90ytr90
3 | 0

0 | 429

4

13.04.2014 17:56

Зарубежное кино [HDDVDRip / BDRip / WEB-DL / HDTV 1080/720р] Прикосновение огнём / Mania Days / Touched With Fire (Пол Далио) [2015 г., драма, мелодрама, BDRip 1080p] MVO makkol
0 | 0

0 | 957

3

12.06.2016 22:35

T Зарубежное кино [HDDVDRip / BDRip / WEB-DL / HDTV 1080/720р] Прикосновение огнём / Mania Days / Touched with Fire (Пол Далио / Paul Dalio) [2015 г., драма, мелодрама, BDRip 720p] MVO (KOSHERA) 90ytr90
7 | 0

0 | 1205

0

13.06.2016 18:06

25-Дек-2011 01:05

Топик был перенесен из форума Научно-популярные фильмы в форум Документальное кино HDTV


dj_maxx
 

Яндекс.Метрика powered by Sphinx


В Н И М А Н И Е
Сайт не распространяет и не хранит электронные версии произведений, а лишь бесплатно и без коммерческой выгоды (не требуя взамен платы,
SMS и т.д.) предоставляет доступ к создаваемому пользователями каталогу ссылок на торрент-файлы, которые содержат только списки хеш-сумм.
Убедительная просьба с жалобами обращаться напрямую к пользователю, разместившему торрент файл.

Вверх