Loading...
Error

Сан-Францисские Горки (Семён Винокур) [2005 г., документально-познавательный, HDTVRip 720p]

Статистика раздачи
Размер:  432 MB   |    Зарегистрирован:  5 лет 10 месяцев   |    Скачан:  0 раз

Полного источника не было: 3 года 11 месяцев

Сидов:  0  |  0 KB/s  ]   Личеров:  0  |  0 KB/s  ]

* - сиды/пиры с внешних источников

   
 
Автор Сообщение

krasyarBB 

22-Ноя-2011 10:02

Сан-Францисские Горки


Год выпуска: 2005
Страна: Израиль
Студия: ARI Films

Жанр: документально-познавательный
Продолжительность: 00:30:04

Перевод: не требуется
Субтитры: отсутствуют

Режиссер: Семён Винокур
Продюсер:: Леонид Макарон
В ролях: Доктор Вильям Тиллер, Доктор Фред Алан Вольф, Джеффри Сатиновер и Каббалист Михаэль Лайтман

Описание:
Это фильм о встрече двух миров. Один представляет древнюю науку Каббала, другой – современную науку, ищущую ответы через опытные исследования. Встреча посвящена потребности человечества в правдивых ответах на возникающие вопросы, и именно здесь проявляется истинная ценность Каббалы как современной науки, недавно открытой миру именно для этой цели.
Ученые: Доктор Вильям Тиллер, Доктор Фред Алан Вольф, и Джеффри Сатиновер, доктор медицины и магистр естественных наук, ставшие знаменитыми после съемок нашумевшего научного документального фильма «What the Bleep Do We Know?!», ищут ответ на вопрос об источнике существования.
Ученые чувствуют, что в своих исследованиях в области квантовой физики они лишь слегка прикоснулись к тайне жизни и, естественно, хотят большего.
В фильме ведущий каббалист, профессор, рав Михаэль Лайтман, отвечает на вопросы ученых – участников фильма. Мы становимся свидетелями захватывающей дискуссии, в результате которой раскрываются удивительные перспективы перед современной наукой.

Формат: MP4
Качество: HDTVRip
Видео кодек: AVC(H264)
Аудио кодек: AAC
Видео: 1280x720, 25,000 fps, 1814 Kbps, 0.079 bit/pixel
Аудио: 48 kHz, 2 (L,R) ch, 192 kb/s






Общее
Полное имя : sanfranciskie_gorki.mp4
Формат : MPEG-4
Профиль формата : Base Media / Version 2
Идентификатор кодека : mp42
Размер файла : 432 Мбайт
Продолжительность : 30 м.
Режим общего битрейта : Переменный
Общий поток : 2006 Кбит/сек
Дата кодирования : UTC 2011-10-07 07:18:54
Дата пометки : UTC 2011-10-07 07:19:05
Программа кодирования : mp4creator 1.6.1d

Видео
Идентификатор : 1
Формат : AVC
Формат/Информация : Advanced Video Codec
Профиль формата : High@L3.0
Параметр CABAC формата : Нет
Параметр ReFrames формата : 1 кадр
Идентификатор кодека : avc1
Идентификатор кодека/Информация : Advanced Video Coding
Продолжительность : 30 м.
Вид битрейта : Переменный
Битрейт : 1814 Кбит/сек
Ширина : 1280 пикселей
Высота : 720 пикселей
Соотношение сторон : 16:9
Режим частоты кадров : Постоянный
Частота кадров : 25,000 кадров/сек
Цветовое пространство : YUV
Субдискретизация насыщенности : 4:2:0
Битовая глубина : 8 бит
Тип развёртки : Прогрессивная
Бит/(Пиксели*Кадры) : 0.079
Размер потока : 391 Мбайт (90%)
Язык : English
Дата кодирования : UTC 2011-10-07 07:18:54
Дата пометки : UTC 2011-10-07 07:19:04

Аудио
Идентификатор : 2
Формат : AAC
Формат/Информация : Advanced Audio Codec
Профиль формата : LC
Идентификатор кодека : 40
Продолжительность : 30 м.
Вид битрейта : Переменный
Битрейт : 192 Кбит/сек
Максимальный битрейт : 259 Кбит/сек
Каналы : 2 канала
Расположение каналов : Front: L R
Частота : 48,0 КГц
Метод сжатия : С потерями
Размер потока : 40,8 Мбайт (9%)
Язык : English
Дата кодирования : UTC 2011-10-07 07:19:04
Дата пометки : UTC 2011-10-07 07:19:05

Этот торрент недоступен для скачивания без регистрации, однако доступен по публичной magnet-ссылке (источники с публичных трекеров). Перед использованием ссылки прочтите, пожалуйста Пользовательское соглашение, а также как можно дольше оставайтесь на раздаче! Для того, чтобы скачать сам торрент-файл (который видит больше источников), а также для того, чтобы поблагодарить релизера, вам необходимо зарегистрироваться. Если регистрироваться лень - вы можете также попробовать скачать релиз по нашим партнерским ссылкам ниже.

[underverse.su].t16515.torrent
Трекер: Зарегистрирован   [ 24.12.2011 16:29 ]  

Статус: проверено (by Паукан at 25.12.2011 01:01)
Поблагодарили: пока никто не поблагодарил...
Тип торрента: публичный - доступные источники с открытых трекеров: 
Размер: 432 MB (занимает 0,1 DVDR, для записи нужно 1 болванка DVDR/RW)
san-franciskie_gorki_torrent
 
 

25-Дек-2011 01:05

Топик был перенесен из форума Научно-популярные фильмы в форум Документальное кино HDTV


dj_maxx
 

Яндекс.Метрика powered by Sphinx


В Н И М А Н И Е
Сайт не распространяет и не хранит электронные версии произведений, а лишь бесплатно и без коммерческой выгоды (не требуя взамен платы,
SMS и т.д.) предоставляет доступ к создаваемому пользователями каталогу ссылок на торрент-файлы, которые содержат только списки хеш-сумм.
Убедительная просьба с жалобами обращаться напрямую к пользователю, разместившему торрент файл.

Вверх