Loading...
Error

Тайные связи (Семен Винокур) [2009 г.,документально-познавательный, HDTVRip 720p]

Статистика раздачи
Размер:  312 MB   |    Зарегистрирован:  5 лет 10 месяцев   |    Скачан:  0 раз

Полного источника не было: 3 года 11 месяцев

Сидов:  0  |  0 KB/s  ]   Личеров:  0  |  0 KB/s  ]

* - сиды/пиры с внешних источников

   
 
Автор Сообщение

krasyarBB 

22-Ноя-2011 09:56

Тайные связи


Год выпуска: 2009
Страна: Израиль
Студия: ARI Films

Жанр: документально-познавательный
Продолжительность: 00:22:12

Перевод: не требуется
Субтитры: отсутствуют

Режиссер: Семён Винокур
Продюсер:: Павел Ярославский
В ролях: Михаэль Лайтман, Михаил Хазин, Михаил Санилевич, Евгений Литварь, Юлия Рутберг, Александр Никонов

Информация о фильме: По всем прогнозам: экономическим, климатическим, политическим и социальным человечество прошло некий рубеж, за которым нет возврата.. Перед нами общая катастрофа, нынешний экономический кризис – ее первая ласточка. Затем – голод, эпидемии, и, разумеется, войны, ядерные. Экономисты, ученые, журналисты, люди искусства спрашивают, что можно сделать? Чем завтра накормить 6,5 млрд. человек? Как удержать отчаявшиеся массы от насилия, анархии, фашизма? Можно ли вообще спрыгнуть с этого поезда, несущегося в пропасть? Острые вопросы, претензии, сомнения, крик души – на все дает ответ, объяснение, доказательства и надежду каббалист, профессор Михаэль Лайтман в фильме "Тайные связи".

Формат: MP4
Качество: HDTVRip
Видео кодек: AVC(H264)
Аудио кодек: AAC
Видео: 1280x720, 25,000 fps, 1770 Kbps, 0.077 bit/pixel
Аудио: 48 kHz, 2 (L,R) ch, 192 kb/s






Общее
Полное имя : tajnye_svjazi.mp4
Формат : MPEG-4
Профиль формата : Base Media / Version 2
Идентификатор кодека : mp42
Размер файла : 312 Мбайт
Продолжительность : 22 м.
Режим общего битрейта : Переменный
Общий поток : 1961 Кбит/сек
Дата кодирования : UTC 2011-12-14 13:58:15
Дата пометки : UTC 2011-12-14 13:58:36
Программа кодирования : mp4creator 1.6.1d

Видео
Идентификатор : 1
Формат : AVC
Формат/Информация : Advanced Video Codec
Профиль формата : High@L3.0
Параметр CABAC формата : Нет
Параметр ReFrames формата : 1 кадр
Идентификатор кодека : avc1
Идентификатор кодека/Информация : Advanced Video Coding
Продолжительность : 22 м.
Вид битрейта : Переменный
Битрейт : 1770 Кбит/сек
Ширина : 1280 пикселей
Высота : 720 пикселей
Соотношение сторон : 16:9
Режим частоты кадров : Постоянный
Частота кадров : 25,000 кадров/сек
Цветовое пространство : YUV
Субдискретизация насыщенности : 4:2:0
Битовая глубина : 8 бит
Тип развёртки : Прогрессивная
Бит/(Пиксели*Кадры) : 0.077
Размер потока : 282 Мбайт (90%)
Язык : English
Дата кодирования : UTC 2011-12-14 13:58:15
Дата пометки : UTC 2011-12-14 13:58:24

Аудио
Идентификатор : 2
Формат : AAC
Формат/Информация : Advanced Audio Codec
Профиль формата : LC
Идентификатор кодека : 40
Продолжительность : 22 м.
Вид битрейта : Переменный
Битрейт : 192 Кбит/сек
Максимальный битрейт : 251 Кбит/сек
Каналы : 2 канала
Расположение каналов : Front: L R
Частота : 48,0 КГц
Метод сжатия : С потерями
Размер потока : 30,1 Мбайт (10%)
Язык : English
Дата кодирования : UTC 2011-12-14 13:58:24
Дата пометки : UTC 2011-12-14 13:58:36

Этот торрент недоступен для скачивания без регистрации, однако доступен по публичной magnet-ссылке (источники с публичных трекеров). Перед использованием ссылки прочтите, пожалуйста Пользовательское соглашение, а также как можно дольше оставайтесь на раздаче! Для того, чтобы скачать сам торрент-файл (который видит больше источников), а также для того, чтобы поблагодарить релизера, вам необходимо зарегистрироваться. Если регистрироваться лень - вы можете также попробовать скачать релиз по нашим партнерским ссылкам ниже.

[underverse.su].t16516.torrent
Трекер: Зарегистрирован   [ 24.12.2011 16:31 ]  

Статус: проверено (by Паукан at 25.12.2011 01:02)
Поблагодарили: пока никто не поблагодарил...
Тип торрента: публичный - доступные источники с открытых трекеров: 
Размер: 312 MB (занимает 0,07 DVDR, для записи нужно 1 болванка DVDR/RW)
tajnye_svjazi_torrent
 
 

25-Дек-2011 01:05

Топик был перенесен из форума Научно-популярные фильмы в форум Документальное кино HDTV


dj_maxx
 

Яндекс.Метрика powered by Sphinx


В Н И М А Н И Е
Сайт не распространяет и не хранит электронные версии произведений, а лишь бесплатно и без коммерческой выгоды (не требуя взамен платы,
SMS и т.д.) предоставляет доступ к создаваемому пользователями каталогу ссылок на торрент-файлы, которые содержат только списки хеш-сумм.
Убедительная просьба с жалобами обращаться напрямую к пользователю, разместившему торрент файл.

Вверх