Loading...
Error

(Musical / Мюзикл ) Звуки музыки / The Sound of Music (2006) [FLAC (Image+.CUE), lossless]

Статистика раздачи
Размер:  311 MB   |    Зарегистрирован:  7 лет   |    Скачан:  3 раза

Полного источника не было: 9 месяцев

Сидов:  0  |  0 KB/s  ]   Личеров:  0  |  0 KB/s  ]

* - сиды/пиры с внешних источников

   
 
Автор Сообщение

МУХА~ Пол:Муж

08-Дек-2010 16:09

Звуки музыки / The Sound of Music

Жанр: Musical / Мюзикл
Год выпуска: 2006
Производитель диска: Великобритания (London Palladium Cast Recording)
Аудиокодек: FLAC
Тип рипа: Image+.CUE
Битрейт аудио: lossless
Продолжительность: 00:59:35
Композитор: Richard Rodgers
Либреттист: Oscar Hammerstein
Mother Abbess - Lesley Garrett
Maria - Connie Fisher
Sister Berthe - Claire Massie
Sister Margaretta - Susie Fenwick
Sister Sophia - Margaret Preece
Frau Schmidt - Nicola Sloane
Captain Georg von Trapp - Alexander Hanson
Franz - Paul Kemble
Liesl - Sophie Bould
Friedrich - Joe Cooper
Louisa - Poppy Lee
Kurt - Jack Montgomery
Brigitta - Olivia Gould
Marta - Yasmin Garrad
Gretl - Adrianna Bertola
Rolf - Neil McDermott
Baroness Schraeder - Lauren Ward
Max Dertweiler - Ian Gelder
Herr Zeller - Alan Vicary
Frau Zeller - Armanda Hall
Baron Elberfeld - John Griffiths
Baroness Elberfeld - Emma Lindars


1. Preludium
2. The Sound Of Music
3. Maria
4. My favorite Things
5. I Have Confidence
6. Do-Re-Mi
7. Sixteen Going On Seventeen
8. My Favourite Things
9. How Can Love Survive?
10. The Sound Of Music
11. The Lonely Goatherd
12. The Grand Waltz
13. Laendler
14. So Long, Farewell (Bolero)
15. Climb Ev'ry Mountain
16. Entr'acte
17. No Way To Stop It
18. Something Good
19. The Wedding Processional
20. Sixteen Going On Seventeen
21. Edelweiss
22. Climb Ev'ry Mountain


Exact Audio Copy V0.99 prebeta 4 from 23. January 2008
Отчёт EAC об извлечении, выполненном 2. октября 2009, 13:32
London Palladium Cast / The Sound of Music
Дисковод: _NEC DVD_RW ND-4570A Adapter: 0 ID: 0
Режим чтения : Достоверность
Использование точного потока : Да
Отключение кэша аудио : Да
Использование указателей C2 : Нет
Коррекция смещения при чтении : 48
Способность читать области Lead-in и Lead-out : Нет
Заполнение пропущенных сэмплов тишиной : Да
Удаление блоков с тишиной в начале и конце : Нет
При вычислениях CRC использовались нулевые сэмплы : Да
Интерфейс : Встроенный Win32-интерфейс для Win NT/2000
Выходной формат : Пользовательский кодировщик
Выбранный битрейт : 1024 kBit/s
Качество : Высокий
Добавление ID3-тэга : Нет
Утилита сжатия : C:\Program Files\Exact Audio Copy\Flac\flac.exe
Дополнительные параметры : -T "artist=%a" -T "title=%t" -T "album=%g" -T "date=%y" -T "tracknumber=%n" -T "genre=%m" -5 %s
TOC извлечённого CD
Трек | Старт | Длительность | Начальный сектор | Конечный сектор
---------------------------------------------------------------------
1 | 0:00.00 | 2:25.51 | 0 | 10925
2 | 2:25.51 | 3:26.67 | 10926 | 26442
3 | 5:52.43 | 3:07.68 | 26443 | 40535
4 | 9:00.36 | 1:25.20 | 40536 | 46930
5 | 10:25.56 | 2:14.40 | 46931 | 57020
6 | 12:40.21 | 5:11.28 | 57021 | 80373
7 | 17:51.49 | 3:37.36 | 80374 | 96684
8 | 21:29.10 | 2:05.35 | 96685 | 106094
9 | 23:34.45 | 2:07.23 | 106095 | 115642
10 | 25:41.68 | 2:00.68 | 115643 | 124710
11 | 27:42.61 | 3:12.66 | 124711 | 139176
12 | 30:55.52 | 2:21.73 | 139177 | 149824
13 | 33:17.50 | 2:48.13 | 149825 | 162437
14 | 36:05.63 | 3:11.11 | 162438 | 176773
15 | 39:16.74 | 3:01.14 | 176774 | 190362
16 | 42:18.13 | 2:42.64 | 190363 | 202576
17 | 45:01.02 | 2:42.43 | 202577 | 214769
18 | 47:43.45 | 3:28.02 | 214770 | 230371
19 | 51:11.47 | 1:55.01 | 230372 | 238997
20 | 53:06.48 | 2:25.09 | 238998 | 249881
21 | 55:31.57 | 2:33.12 | 249882 | 261368
22 | 58:04.69 | 1:29.51 | 261369 | 268094
Характеристики диапазона извлечения и сообщения об ошибках
Выбранный диапазон
Имя файла E:\My Rips\The Sound if Music\London Palladium Cast - The Sound of Music.wav
Пиковый уровень 98.0 %
Качество диапазона 100.0 %
CRC копии BA74D3AF
Копирование... OK
Ошибок не произошло
AccurateRip: сводка
Трек 1 точное извлечение (доверие 5) [B63F1C9C]
Трек 2 точное извлечение (доверие 5) [E04E399E]
Трек 3 точное извлечение (доверие 5) [DFAB9A15]
Трек 4 точное извлечение (доверие 5) [43D1128C]
Трек 5 точное извлечение (доверие 5) [58F4A382]
Трек 6 точное извлечение (доверие 5) [137AAABC]
Трек 7 точное извлечение (доверие 5) [70AEE914]
Трек 8 точное извлечение (доверие 5) [3D591020]
Трек 9 точное извлечение (доверие 5) [6BB43BC0]
Трек 10 точное извлечение (доверие 5) [CFB0A42D]
Трек 11 точное извлечение (доверие 5) [68843EDB]
Трек 12 точное извлечение (доверие 5) [741D93D5]
Трек 13 точное извлечение (доверие 5) [EF3D638D]
Трек 14 точное извлечение (доверие 5) [E49C8F1D]
Трек 15 точное извлечение (доверие 5) [6F670DA0]
Трек 16 точное извлечение (доверие 5) [F8445281]
Трек 17 точное извлечение (доверие 5) [A8BB3CB2]
Трек 18 точное извлечение (доверие 5) [E2D00323]
Трек 19 точное извлечение (доверие 5) [44CF1169]
Трек 20 точное извлечение (доверие 5) [280FD7E8]
Трек 21 точное извлечение (доверие 5) [5EA7A899]
Трек 22 точное извлечение (доверие 5) [E580FA14]
Все треки извлечены точно
Конец отчёта

Этот торрент недоступен для скачивания без регистрации, однако доступен по публичной magnet-ссылке (источники с публичных трекеров). Перед использованием ссылки прочтите, пожалуйста Пользовательское соглашение, а также как можно дольше оставайтесь на раздаче! Для того, чтобы скачать сам торрент-файл (который видит больше источников), а также для того, чтобы поблагодарить релизера, вам необходимо зарегистрироваться. Если регистрироваться лень - вы можете также попробовать скачать релиз по нашим партнерским ссылкам ниже.

[underverse.su].t12974.torrent
Трекер: Зарегистрирован   [ 08.12.2010 16:09 ]  

Статус: проверено (by M-i-i-i-ke at 08.12.2010 16:15)
Поблагодарили: 1 человек
Тип торрента: публичный - доступные источники с открытых трекеров: 
Размер: 311 MB (занимает 0,07 DVDR, для записи нужно 1 болванка DVDR/RW)
 
 

garry Пол:Муж

08-Дек-2010 19:02

:lol:
только вот хотел выложить....

добавлено спустя 1 минута 4 секунды:

стоп...так это мюзикл?

Яндекс.Метрика powered by Sphinx


В Н И М А Н И Е
Сайт не распространяет и не хранит электронные версии произведений, а лишь бесплатно и без коммерческой выгоды (не требуя взамен платы,
SMS и т.д.) предоставляет доступ к создаваемому пользователями каталогу ссылок на торрент-файлы, которые содержат только списки хеш-сумм.
Убедительная просьба с жалобами обращаться напрямую к пользователю, разместившему торрент файл.

Вверх