Loading...
Error

(New Age) Schiller - Desire 2.0 (2009) [FLAC (Image+.CUE), lossless]

Статистика раздачи
Размер:  493 MB   |    Зарегистрирован:  7 лет 10 месяцев   |    Скачан:  7 раз

Полного источника не было: 3 года

Сидов:  0  |  0 KB/s  ]   Личеров:  0  |  0 KB/s  ]

* - сиды/пиры с внешних источников

   
 
Автор Сообщение

Bratok Пол:Муж

01-Июл-2010 19:31

Schiller - Desire 2.0
Жанр: New Age
Год выпуска: 2009
Производитель диска: Германия
Аудиокодек: FLAC
Тип рипа: Image+.CUE
Битрейт аудио: lossless
Продолжительность: 01:18:09

Треклист:

01. Let Me Love You With Kim Sanders [0:03:35.22]
02. Heartbeat [0:04:30.60]
03. Black With Jette Von Roth [0:04:40.43]
04. Denn Wer Liebt With Anna Maria Muche [0:03:44.62]
05. Sehnsucht With Xavier Naidoo [0:03:59.12]
06. Fate With Isis Gee [0:03:55.63]
07. Everuthing With Helen Boulding [0:04:06.67]
08. In Der Weite With Anna Maria Muche [0:05:14.55]
09. Ile Aye With Stephenie Coker [0:02:41.53]
10. Time For Dream With Lang Lang [0:03:11.00]
11. Zenit With Klaus Schulze [0:03:46.09]
12. Destiny With Despina Vandi [0:04:07.72]
13. You With Colbie Caillat [0:04:09.52]
14. Wunschtraum [0:04:31.40]
15. Paorque Te Vas With Ana Torroja [0:04:27.11]
16. Tired With Mit Jal [0:04:37.39]
17. Wehmut [0:04:06.00]
18. Forever With Kim Sanders [0:05:14.36]

BONUS
19. Breathe (Dave Ramon Radio Edit) With September [0:03:27.63]


Релиз группы:

Exact Audio Copy V0.99 prebeta 5 from 4. May 2009

EAC extraction logfile from 1. July 2010, 22:42

Schiller / Desire 2.0

Used drive : TSSTcorpCDDVDW SH-S202J Adapter: 0 ID: 0

Read mode : Secure
Utilize accurate stream : Yes
Defeat audio cache : Yes
Make use of C2 pointers : No

Read offset correction : 6
Overread into Lead-In and Lead-Out : No
Fill up missing offset samples with silence : Yes
Delete leading and trailing silent blocks : No
Null samples used in CRC calculations : Yes
Used interface : Native Win32 interface for Win NT & 2000

Used output format : User Defined Encoder
Selected bitrate : 128 kBit/s
Quality : High
Add ID3 tag : No
Command line compressor : C:\Program Files\Exact Audio Copy\Flac\flac.exe
Additional command line options : -8 -V %s

TOC of the extracted CD

Track | Start | Length | Start sector | End sector
---------------------------------------------------------
1 | 0:00.00 | 3:35.22 | 0 | 16146
2 | 3:35.22 | 4:30.60 | 16147 | 36456
3 | 8:06.07 | 4:40.43 | 36457 | 57499
4 | 12:46.50 | 3:44.62 | 57500 | 74361
5 | 16:31.37 | 3:59.12 | 74362 | 92298
6 | 20:30.49 | 3:55.63 | 92299 | 109986
7 | 24:26.37 | 4:06.67 | 109987 | 128503
8 | 28:33.29 | 5:14.55 | 128504 | 152108
9 | 33:48.09 | 2:41.53 | 152109 | 164236
10 | 36:29.62 | 3:11.00 | 164237 | 178561
11 | 39:40.62 | 3:46.09 | 178562 | 195520
12 | 43:26.71 | 4:07.72 | 195521 | 214117
13 | 47:34.68 | 4:09.52 | 214118 | 232844
14 | 51:44.45 | 4:31.40 | 232845 | 253209
15 | 56:16.10 | 4:27.11 | 253210 | 273245
16 | 60:43.21 | 4:37.39 | 273246 | 294059
17 | 65:20.60 | 4:06.00 | 294060 | 312509
18 | 69:26.60 | 5:14.36 | 312510 | 336095
19 | 74:41.21 | 3:27.63 | 336096 | 351683

Range status and errors

Selected range

Filename E:\музыка на торент 2\Schiller Desire 2.0\Schiller - Desire 2.0.wav

Peak level 100.0 %
Range quality 100.0 %
Test CRC 06DDD00C
Copy CRC 06DDD00C
Copy OK

No errors occurred

AccurateRip summary
Track 1 accurately ripped (confidence 3) [A332BF4E]
Track 2 accurately ripped (confidence 3) [EF6F6537]
Track 3 accurately ripped (confidence 3) [7678C4E0]
Track 4 accurately ripped (confidence 3) [2A2426B2]
Track 5 accurately ripped (confidence 3) [38116B35]
Track 6 accurately ripped (confidence 3) [379D5AA9]
Track 7 accurately ripped (confidence 3) [CF43D954]
Track 8 accurately ripped (confidence 3) [74D08A45]
Track 9 accurately ripped (confidence 3) [AAB4E372]
Track 10 accurately ripped (confidence 3) [80B447B4]
Track 11 accurately ripped (confidence 3) [900ADD2B]
Track 12 accurately ripped (confidence 3) [C9F6F13D]
Track 13 accurately ripped (confidence 3) [6830CF90]
Track 14 accurately ripped (confidence 3) [460F0430]
Track 15 accurately ripped (confidence 3) [742D9698]
Track 16 accurately ripped (confidence 3) [89FE282E]
Track 17 accurately ripped (confidence 3) [FC396AD7]
Track 18 accurately ripped (confidence 2) [0B70BC9D]
Track 19 accurately ripped (confidence 2) [CCA199A3]
All tracks accurately ripped

End of status report
AUDIOCHECKER v2.0 beta (build 457) - by Dester - opdester@freemail.hu
~~~~~~~~~~~~~~~~~~~~~~~~~~~~~~~~~~
-=== НЕ РЕДАКТИРУЙТЕ ЭТОТ ФАЙЛ! ===-

Путь: ...\Schiller Desire 2.0

1 -=- Schiller - Desire 2.0.flac -=- CDDA (100%)

110747220

Этот торрент недоступен для скачивания без регистрации, однако доступен по публичной magnet-ссылке (источники с публичных трекеров). Перед использованием ссылки прочтите, пожалуйста Пользовательское соглашение, а также как можно дольше оставайтесь на раздаче! Для того, чтобы скачать сам торрент-файл (который видит больше источников), а также для того, чтобы поблагодарить релизера, вам необходимо зарегистрироваться. Если регистрироваться лень - вы можете также попробовать скачать релиз по нашим партнерским ссылкам ниже. Кроме того, зарегистрированным пользователям не показывается всплывающая реклама при скачивании.

[underverse.su].t10840.torrent
Трекер: Зарегистрирован   [ 01.07.2010 19:31 ]  

Статус: проверено (by M-i-i-i-ke at 01.07.2010 19:33)
Поблагодарили: пока никто не поблагодарил...
Тип торрента: публичный - доступные источники с открытых трекеров: 
Размер: 493 MB (занимает 0,11 DVDR, для записи нужно 1 болванка DVDR/RW)
 
 
Похожие темы
Форум Тема Автор Торрент Отв. Посл. сооб.
Traditional Electronic, Ambient, NewAge (New Age) Terry Oldfield & Carlos Garo - Sky Dancer (2017) [MP3, 320 kbps CBR] Darkferse
5 | 0

0 | 824

6

16.05.2017 08:02

Traditional Electronic, Ambient, NewAge (New Age) Tsukinosora - Next Door (2012) [MP3, 320 kbps CBR] Jimmy
1 | 0

0 | 1803

5

19.12.2012 07:10

Traditional Electronic, Ambient, NewAge (New Age) Nicholas Gunn - Thirty-One Nights (2012) [MP3, 320 kbps CBR] Jimmy
0 | 0

0 | 1882

7

20.12.2012 04:57

Traditional Electronic, Ambient, NewAge (New Age) kokohana - kokohana Ghibli Mix (2012) [MP3, 320 kbps CBR] Jimmy
2 | 0

0 | 1863

3

20.12.2012 05:00

Traditional Electronic, Ambient, NewAge (New Age) Karunesh - Colors of the East (2012) [MP3, 320 kbps CBR] Jimmy
14 | 1

0 | 1938

12

20.12.2012 05:05

Traditional Electronic, Ambient, NewAge (New Age) Guy Sweens - Pathways (2016) [MP3, 320 kbps] ANDRAKO
0 | 0

0 | 569

5

09.11.2016 13:03

Traditional Electronic, Ambient, NewAge (New Age) Кулай - Спроси у Солнца (2016) [MP3, 320 kbps] ANDRAKO
1 | 0

0 | 361

2

09.11.2016 12:45

Traditional Electronic, Ambient, NewAge (New Age) Дидюля & Chris Wonderful - Аквамарин (2017) [MP3, 320 kbps CBR] Serghanter
23 | 0

0 | 1112

17

23.04.2017 08:20

Traditional Electronic, Ambient, NewAge (New Age) Deuter - Bamboo Forest (2017) [MP3, 320 kbps CBR] Darkferse
11 | 1

0 | 269

3

29.12.2017 09:38

Traditional Electronic, Ambient, NewAge (Lossless) (New Age) Oliver Scheffner - Traum vom endlosen Himmel (2017) [FLAC (Tracks), lossless] Web Darkferse
0 | 0

0 | 513

3

22.06.2017 00:04

Mr.KOLA Пол:Муж

29-Ноя-2010 22:12

раздайте

31-Янв-2018 21:15

Топик был перенесен из форума Traditional Electronic, Ambient, NewAge (Lossless) в форум Архив (HQ электронная музыка)


[cron robot]
 

Яндекс.Метрика powered by Sphinx


В Н И М А Н И Е
Сайт не распространяет и не хранит электронные версии произведений, а лишь бесплатно и без коммерческой выгоды (не требуя взамен платы,
SMS и т.д.) предоставляет доступ к создаваемому пользователями каталогу ссылок на торрент-файлы, которые содержат только списки хеш-сумм.
Убедительная просьба с жалобами обращаться напрямую к пользователю, разместившему торрент файл.

Вверх