Loading...
Error

(Dance|Club) VA - Energy Dance (2010) [FLAC (Image+.CUE), lossless]

Статистика раздачи
Размер:  520 MB   |    Зарегистрирован:  7 лет 11 месяцев   |    Скачан:  12 раз

Полного источника не было: 3 года 8 месяцев

Сидов:  0  |  0 KB/s  ]   Личеров:  0  |  0 KB/s  ]

* - сиды/пиры с внешних источников

   
 
Автор Сообщение

Bratok Пол:Муж

19-Июн-2010 19:25

VA - Energy Dance
Жанр: Dance|Club
Год выпуска: 2010
Производитель диска: Россия
Аудиокодек: FLAC
Тип рипа: Image+.CUE
Битрейт аудио: lossless
Продолжительность: 01:12:21

Треклист:

01. Serge Devant featuring Hadley / Addicted (Radio Edit) [0:03:40.13]
02. Dan Balan / Chica Bomb (radio edit) [0:03:32.52]
03. Medina / You & I (radio edit) [0:03:25.03]
04. R.I.O. / After the Love (radio edit) [0:03:36.16]
05. Diedra / Cherry Lips (Radio Edit) [0:03:40.57]
06. Soulshaker feat Kathrine Ellis / Time to Play (Soulshaker Original radio) [0:03:03.53]
07. Ph Electro / San Francisco (original radio edit) [0:03:18.29]
08. Dj DEX feat KATHY / Just Wont Do (Radio) [0:03:30.36]
09. Javi Mula / Come On (Radio Edit) [0:03:17.33]
10. Favretto feat Ann Lee / I Get The Feeling (radio full) [0:03:32.34]
11. SilverScreen VS Londonbeat / Thinking About You 2010 (Chico del Mar Radio Edit) [0:03:24.34]
12. Sunstroke / Summer (Radio Edit) [0:03:31.56]
13. Michael Feiner / Must Be The Music (Radio Edit) [0:03:27.71]
14. Simon de Jano / Sunshine (radio edit) [0:02:58.13]
15. Atb / 9pm Reloaded [0:03:59.06]
16. Kato vs Dj Jose feat Jon / Turn The Lights Off (Radio Edit) [0:02:58.08]
17. Anda Adam / My Soul [0:03:45.08]
18. The Teachers / Great Commandment (Cleveland remix edit) [0:03:25.61]
19. Whizzkidz feat Inusa Dawuda / Rumours Digi Digi (radio edit) [0:03:20.22]
20. Scooter / Stuck On Replay [0:03:12.10]
21. David Vendetta / I Hope She Turns Around (Radio Edit) [0:03:41.54]

Релиз группы:

Exact Audio Copy V0.99 prebeta 5 from 4. May 2009

EAC extraction logfile from 19. June 2010, 23:12

- / Energy Dance

Used drive : TSSTcorpCDDVDW SH-S202J Adapter: 0 ID: 0

Read mode : Secure
Utilize accurate stream : Yes
Defeat audio cache : Yes
Make use of C2 pointers : No

Read offset correction : 6
Overread into Lead-In and Lead-Out : No
Fill up missing offset samples with silence : Yes
Delete leading and trailing silent blocks : No
Null samples used in CRC calculations : Yes
Used interface : Native Win32 interface for Win NT & 2000

Used output format : User Defined Encoder
Selected bitrate : 128 kBit/s
Quality : High
Add ID3 tag : No
Command line compressor : C:\Program Files\Exact Audio Copy\Flac\flac.exe
Additional command line options : -8 -V %s

TOC of the extracted CD

Track | Start | Length | Start sector | End sector
---------------------------------------------------------
1 | 0:00.00 | 3:40.13 | 0 | 16512
2 | 3:40.13 | 3:32.52 | 16513 | 32464
3 | 7:12.65 | 3:25.03 | 32465 | 47842
4 | 10:37.68 | 3:36.16 | 47843 | 64058
5 | 14:14.09 | 3:40.57 | 64059 | 80615
6 | 17:54.66 | 3:03.53 | 80616 | 94393
7 | 20:58.44 | 3:18.29 | 94394 | 109272
8 | 24:16.73 | 3:30.36 | 109273 | 125058
9 | 27:47.34 | 3:17.33 | 125059 | 139866
10 | 31:04.67 | 3:32.34 | 139867 | 155800
11 | 34:37.26 | 3:24.34 | 155801 | 171134
12 | 38:01.60 | 3:31.56 | 171135 | 187015
13 | 41:33.41 | 3:27.71 | 187016 | 202611
14 | 45:01.37 | 2:58.13 | 202612 | 215974
15 | 47:59.50 | 3:59.06 | 215975 | 233905
16 | 51:58.56 | 2:58.08 | 233906 | 247263
17 | 54:56.64 | 3:45.08 | 247264 | 264146
18 | 58:41.72 | 3:25.61 | 264147 | 279582
19 | 62:07.58 | 3:20.22 | 279583 | 294604
20 | 65:28.05 | 3:12.10 | 294605 | 309014
21 | 68:40.15 | 3:41.54 | 309015 | 325643

Range status and errors

Selected range

Filename D:\музыка на торент\Energy Dance\Energy Dance.wav

Peak level 99.6 %
Range quality 99.9 %
Test CRC 76D93148
Copy CRC 76D93148
Copy OK

No errors occurred

AccurateRip summary
Track 1 not present in database
Track 2 not present in database
Track 3 not present in database
Track 4 not present in database
Track 5 not present in database
Track 6 not present in database
Track 7 not present in database
Track 8 not present in database
Track 9 not present in database
Track 10 not present in database
Track 11 not present in database
Track 12 not present in database
Track 13 not present in database
Track 14 not present in database
Track 15 not present in database
Track 16 not present in database
Track 17 not present in database
Track 18 not present in database
Track 19 not present in database
Track 20 not present in database
Track 21 not present in database
None of the tracks are present in the AccurateRip database

End of status report

Этот торрент недоступен для скачивания без регистрации, однако доступен по публичной magnet-ссылке (источники с публичных трекеров). Перед использованием ссылки прочтите, пожалуйста Пользовательское соглашение, а также как можно дольше оставайтесь на раздаче! Для того, чтобы скачать сам торрент-файл (который видит больше источников), а также для того, чтобы поблагодарить релизера, вам необходимо зарегистрироваться. Если регистрироваться лень - вы можете также попробовать скачать релиз по нашим партнерским ссылкам ниже. Кроме того, зарегистрированным пользователям не показывается всплывающая реклама при скачивании.

[underverse.su].t10645.torrent
Трекер: Зарегистрирован   [ 19.06.2010 19:29 ]  

Статус: проверено (by M-i-i-i-ke at 19.06.2010 21:08)
Поблагодарили: 4 человека
Тип торрента: публичный - доступные источники с открытых трекеров: 
Размер: 520 MB (занимает 0,12 DVDR, для записи нужно 1 болванка DVDR/RW)
 
 
Похожие темы
Форум Тема Автор Торрент Отв. Посл. сооб.
Архив (популярная музыка) (Dance|Club) VA - Energy Dance (2010) [MP3, 320 kbps] Bratok
0 | 0

6 | 1733

11

31.01.2018 19:45

Bratok Пол:Муж

19-Июн-2010 19:50

Сборник супер! :good:

Unique Пол:Муж

19-Июн-2010 19:51

Bratok
ага!!! есть прикольные песенки!!! может завтра скачаю...

Bratok Пол:Муж

19-Июн-2010 21:12

Мне очень понравились первые две.

BartSimpson Пол:Муж

20-Июн-2010 04:34

Да действительно сборник :good: :Bravo:

Global Mess 

18-Июл-2012 05:31

Раздайте пожалуйста

31-Янв-2018 21:16

Топик был перенесен из форума Сборники в форум Архив (HQ электронная музыка)


[cron robot]
 

Яндекс.Метрика powered by Sphinx


В Н И М А Н И Е
Сайт не распространяет и не хранит электронные версии произведений, а лишь бесплатно и без коммерческой выгоды (не требуя взамен платы,
SMS и т.д.) предоставляет доступ к создаваемому пользователями каталогу ссылок на торрент-файлы, которые содержат только списки хеш-сумм.
Убедительная просьба с жалобами обращаться напрямую к пользователю, разместившему торрент файл.

Вверх