Loading...
Error

Инструкция по снятию потрекового рипа с максимальной точностью

 
Автор Сообщение

Bratok Пол:Муж

11-Июн-2010 19:23

Подразумевается, что Вы прочли статью Инструкция по настройке EAC v1.0 beta 3 для снятия аудиоданных с максимальной точностью и ЕАС у Вас настроен правильно.

Снятие потрекового рипа с максимальной точностью


1. Вставьте диск в CD-привод. При необходимости заполните (исправьте) тэговую информацию о диске.
Если на диске присутствует информация в виде CD-текста, тэги Название CD, Артист и Названия треков заполнятся автоматически. Тэги Год издания и Жанр в этом случае нужно будет заполнить вручную. Если на диске нет CD-текста, будет выполнена попытка автоматической загрузки тэгов от интернет-поставщика метаданных.
Если Вас по какой либо причине не устраивает информация из CD-текста диска, или Вы хотите загрузить дополнительные данные, процедуру автозаполнения тэгов по информации от интернет-поставщиков метаданных можно вызвать вручную, нажав кнопку находящуюся на панели управления под списком выбора дисковода или комбинацией клавиш Alt+G. Если так случилось, что информации о Вашем диске и в интернет-базах ещё нет - такое бывает со "свежими" дисками - информацию для тэгов нужно заполнить вручную.
Если это альбом одного исполнителя и он указан в поле Артист для всего альбома, то поля Исполнитель для каждого трека заполнять не надо - они заполнятся автоматически. Заполняйте поля Исполнитель для каждого трека, только если на диске сборник разных исполнителей. При этом в поле Артист альбома желательно указать "Сборник" ("Компиляция") или "Трибьют-альбом" для русскоязычных альбомов, в зависимости от типа конкретного сборника, или "Various Artist" ("Compilation") или "Tribute", для англоязычных альбомов соответственно.
Остальные информационные поля при создании рипа образом не используются, но сохраняются в базе данных ЕАС.
2. Нажмите F4 (меню Действия => Определить зазоры)
3. Оцените величину предзазора первого трека:
Если интервал равен ровно 2-м секундам
переходим к пункту 5.
Если интервал больше 2-х секунд

следует выполнить пункт 4. Выделенный красным цветом первый трек означает, что предзазор содержит скрытую музыкальную или мультимедийную информацию. О наличии мультимедийной информации (скрытый дата-трек, встречается на дисках выпущенных до 1996 года) обычно есть упоминание на обложке или в буклете издания. Упоминания о скрытом в предзазоре музыкальном треке в полиграфии издания может не быть.
4. Протестируйте зазоры на тишину, для чего нажмите F3 (меню Действия => Проверить зазоры на тишину)
В появившемся окне тестирования оцениваем содержимое зазоров. Если в зазоре первого трека тишина 100%
информацию с предзазора снимать не нужно.
Если информация в зазоре отлична от тишины 100%
нужно снять информацию с предзазора первого трека. После снятия основного рипа, нужно дополнительно выполнить п. 9 инструкции.
Если тишина в предзазоре первого трека не равна 100%, но более 90% (вплоть до 99.9% для скрытого трека), то, скорее всего, Ваш привод не поддерживает чтение из предзазора. В этом случае снимать информацию с предзазора на данном приводе нет никакого смысла (и возможности), даже если в предзазоре скрыт музыкальный трек.
Если величина предзазора первого трека более 2-х секунд, скриншот окошка тестирования зазоров на тишину желательно поместить в раздачу, чтобы другие пользователи убедились в правильности снятия потрекового рипа.
5. Установите методику обработки зазоров, выбрав пукт меню Действия => Добавлять зазор к предыдущему треку (по умолчанию).
Если предзазор первого трека больше 2-х секунд, не содержит тишины и не является скрытым музыкальным треком, а у остальных треков нет зазоров (равны нулю), как показано на рисунке
целесообразно выбрать методику обработки зазоров Добавлять зазор к следующему треку. В этом случае снимать предзазор первого трека отдельно не нужно.
6. Создайте CUE-файл - меню Действия => Создать индексную карту (CUE Sheet) => С текущими настройками зазоров
7. Для начала рипа нажмите комбинацию клавиш Shift+F6 (меню Действия => Протестировать и скопировать выбранные треки => в сжатом виде). По завершению процедуры снятия рипа нажмите кнопку ОК
8. Проверьте колонку CRC главного окна ЕАС. Если для всех треков указано "ОК" - контрольные суммы (CRC) проходов тестирования и копирования совпадают.

Основная процедура снятия потрекового рипа завершена.

9. Если диск содержит ненулевой предзазор первого трека длительностью более 2-х секунд (см. пп. 3,4) или скрытый в нём музыкальный трек, снимаете информацию с предзазора, выбрав необходимую методику.
9.1. Изменяем настройки ЕАС: нажимаете F9 (меню EAC -> Параметры EAC), закладка Разное, снимаете галочку с пункта Автоматически сохранять отчёт после извлечения звуковых данных.
9.2. Выбираете только первый трек в главном окне ЕАС.
9.3. Нажимаете комбинацию клавиш Alt+Shift+X (меню Действия -> Скопировать выбранные треки с разбиением на файлы по каждому индексу -> в сжатом виде). Как только закончится снятие предзазора, в окне Извлечение аудиоданных появится надпись "Копирование трека 1, Индекс 1", жмёте кнопку Отмена прерывая операцию.
9.4. Открываете папку с сохранёнными файлами рипа и переименовываете файл предзазора, который выглядит "01.00 Название_первого_трека.ext" (где ext - расширение контейнера выбранного кодировщика), согласно установленному Вами в настройках шаблону наименования файлов с нулевым номером трека (например, "00. Название_первого_трека.ext"). Файл с именем "01.01 Название_первого_трека.ext" удаляете. К имени файла можно также добавить заключённое в скобки обозначение (HTOA), как признак предзазора.

Внимание! Если в процессе снятия предзазора Вы наблюдали на дисплее ошибок в окне Извлечение аудиоданных ярко красные точки, пункт 9.3. следует повторить и сравнить данные, после разжатия, с помощью функции ЕАС меню Сервис -> Сравнить WAV-файлы.

9.5. Редактируете CUE-файл.
Noncompilant CUE (CUE Sheet с несовместимым систаксисом) генерируемый ЕАС не учитывает наличие дополнительного файла предзазора, поэтому, по окончании процедуры снятия, придётся учесть наличие этого файла в текте CUE Sheet вручную.

Код:

REM GENRE Jazz
REM DATE 1984
REM DISCID 720BD307
REM COMMENT "ExactAudioCopy v0.99pb5"
CATALOG 0042282327024
PERFORMER "Pat Metheny"
TITLE "Works"
FILE "01 - Sueno Con Mexico.wav" WAVE
  TRACK 01 AUDIO
    TITLE "Sueno Con Mexico"
    PERFORMER "Pat Metheny"
    PREGAP 00:00:32
    INDEX 01 00:00:00
  TRACK 02 AUDIO
    TITLE "(Cross The) Heartland"
    PERFORMER "Pat Metheny"
    INDEX 00 05:57:63
FILE "02 - (Cross The) Heartland.wav" WAVE
    INDEX 01 00:00:00
  TRACK 03 AUDIO
    TITLE "Travels"
    PERFORMER "Pat Metheny"
    INDEX 00 06:51:53
FILE "03 - Travels.wav" WAVE
    INDEX 01 00:00:00
  TRACK 04 AUDIO
    TITLE "James"
    PERFORMER "Pat Metheny"
    INDEX 00 05:01:02
FILE "04 - James.wav" WAVE
    INDEX 01 00:00:00
  TRACK 05 AUDIO
    TITLE "'It's For You'"
    PERFORMER "Pat Metheny"
    INDEX 00 06:43:73
FILE "05 - 'It's For You'.wav" WAVE
    INDEX 01 00:00:00
  TRACK 06 AUDIO
    TITLE "Everyday (I Thank You)"
    PERFORMER "Pat Metheny"
    INDEX 00 08:18:05
FILE "06 - Everyday (I Thank You).wav" WAVE
    INDEX 01 00:00:00
  TRACK 07 AUDIO
    TITLE "Goin' Ahead"
    PERFORMER "Pat Metheny"
    INDEX 00 13:15:00
FILE "07 - Goin' Ahead.wav" WAVE
    INDEX 01 00:00:00

Код:

REM GENRE Jazz
REM DATE 1984
REM DISCID 720BD307
REM COMMENT "ExactAudioCopy v0.99pb5"
CATALOG 0042282327024
PERFORMER "Pat Metheny"
TITLE "Works"
FILE "00 - Sueno Con Mexico.wav" WAVE
  TRACK 01 AUDIO
    TITLE "Sueno Con Mexico"
    PERFORMER "Pat Metheny"
    INDEX 00 00:00:00
FILE "01 - Sueno Con Mexico.wav" WAVE
    INDEX 01 00:00:00
  TRACK 02 AUDIO
    TITLE "(Cross The) Heartland"
    PERFORMER "Pat Metheny"
    INDEX 00 05:57:63
FILE "02 - (Cross The) Heartland.wav" WAVE
    INDEX 01 00:00:00
  TRACK 03 AUDIO
    TITLE "Travels"
    PERFORMER "Pat Metheny"
    INDEX 00 06:51:53
FILE "03 - Travels.wav" WAVE
    INDEX 01 00:00:00
  TRACK 04 AUDIO
    TITLE "James"
    PERFORMER "Pat Metheny"
    INDEX 00 05:01:02
FILE "04 - James.wav" WAVE
    INDEX 01 00:00:00
  TRACK 05 AUDIO
    TITLE "'It's For You'"
    PERFORMER "Pat Metheny"
    INDEX 00 06:43:73
FILE "05 - 'It's For You'.wav" WAVE
    INDEX 01 00:00:00
  TRACK 06 AUDIO
    TITLE "Everyday (I Thank You)"
    PERFORMER "Pat Metheny"
    INDEX 00 08:18:05
FILE "06 - Everyday (I Thank You).wav" WAVE
    INDEX 01 00:00:00
  TRACK 07 AUDIO
    TITLE "Goin' Ahead"
    PERFORMER "Pat Metheny"
    INDEX 00 13:15:00
FILE "07 - Goin' Ahead.wav" WAVE
    INDEX 01 00:00:00
Оригинальный файл CUE, сгенерированный ЕАС, сохраняете и помещаете в раздачу вместе с отредактированным рабочим CUE.
9.6. Восстанавливаете настройки ЕАС, изменённые в п. 9.1.
9.1. Выбираете только первый трек в главном окне ЕАС.
9.2. Нажимаете F7 (меню Действия -> Скопировать диапазон -> в несжатом виде).
9.3. Настраиваете диапазон снятия данных.
В вержнем поле ввода Блок устанавливаете значение "0" - начало диапазона.
В нижее поле ввода Блок копируете из отчёта снятия рипа номер стартового сектора первого трека и уменьшаете его на единицу - конец диапазона.
9.4. Нажимате кнопку ОК, в открывшемся окне проводника вводите название скрытого трека, нажимаете кнопку "Сохранить" и производите снятие данных.
Внимание! Если композиция скрытого трека имеет название отличное от названия первого трека, то это должно быть отражено и в имени файла.
9.5. Нажимаете Shift+F7 (меню Действия -> Скопировать диапазон -> в сжатом виде).
9.6. Настраиваете диапазон как указано в п. 9.3., нажимате кнопку ОК, в открывшемся окне проводника вводите то же самое название скрытого трека, которое вводили выполняя п. 9.4., нажимаете кнопку "Сохранить" и производите повторное снятие данных.
9.7. Добавляете к имени полученного файла "Название_скрытого_трека.ext" (где ext - расширение файла контейнера выбранного упаковщика) нулевой номер трека, согласно установленного Вами в настройках шаблона наименования файлов (например, "00. Название_скрытого_трека.ext").
9.8. Редактируете CUE-файл.
Noncompilant CUE (CUE Sheet с несовместимым систаксисом) генерируемый ЕАС не учитывает наличие дополнительного файла предзазора, поэтому, по окончании процедуры снятия, придётся учесть наличие этого файла в текте CUE Sheet вручную.

Код:

REM GENRE Jazz
REM DATE 2003
REM DISCID 9F0C420A
REM COMMENT "ExactAudioCopy v1.0b2"
PERFORMER "Bela Fleck & The Flecktones"
TITLE "Little Worlds"
FILE "01 - Bil Mon.wav" WAVE
  TRACK 01 AUDIO
    TITLE "Bil Mon"
    PERFORMER "Bela Fleck & The Flecktones"
    PREGAP 03:36:20
    INDEX 01 00:00:00
FILE "02 - The Ballad Of Jed Clampett.wav" WAVE
  TRACK 02 AUDIO
    TITLE "The Ballad Of Jed Clampett"
    PERFORMER "Bela Fleck & The Flecktones"
    INDEX 01 00:00:00
  TRACK 03 AUDIO
    TITLE "Puffy"
    PERFORMER "Bela Fleck & The Flecktones"
    INDEX 00 04:06:35
FILE "03 - Puffy.wav" WAVE
    INDEX 01 00:00:00
FILE "04 - New Math.wav" WAVE
  TRACK 04 AUDIO
    TITLE "New Math"
    PERFORMER "Bela Fleck & The Flecktones"
    INDEX 01 00:00:00
FILE "05 - Longitude.wav" WAVE
  TRACK 05 AUDIO
    TITLE "Longitude"
    PERFORMER "Bela Fleck & The Flecktones"
    INDEX 01 00:00:00
FILE "06 - Latitude.wav" WAVE
  TRACK 06 AUDIO
    TITLE "Latitude"
    PERFORMER "Bela Fleck & The Flecktones"
    INDEX 01 00:00:00
FILE "07 - Centrifuge.wav" WAVE
  TRACK 07 AUDIO
    TITLE "Centrifuge"
    PERFORMER "Bela Fleck & The Flecktones"
    INDEX 01 00:00:00
FILE "08 - Off The Top (The Gravity Wheel).wav" WAVE
  TRACK 08 AUDIO
    TITLE "Off The Top (The Gravity Wheel)"
    PERFORMER "Bela Fleck & The Flecktones"
    INDEX 01 00:00:00
FILE "09 - Off The Top (Line Dance).wav" WAVE
  TRACK 09 AUDIO
    TITLE "Off The Top (Line Dance)"
    PERFORMER "Bela Fleck & The Flecktones"
    INDEX 01 00:00:00
  TRACK 10 AUDIO
    TITLE "Follow The Line"
    PERFORMER "Bela Fleck & The Flecktones"
    INDEX 00 04:53:64
FILE "10 - Follow The Line.wav" WAVE
    INDEX 01 00:00:00

Код:

REM GENRE Jazz
REM DATE 2003
REM DISCID 9F0C420A
REM COMMENT "ExactAudioCopy v1.0b2"
PERFORMER "Bela Fleck & The Flecktones"
TITLE "Little Worlds"
FILE "00 - Radio-Flash.wav" WAVE
  TRACK 01 AUDIO
    TITLE "Bil Mon"
    PERFORMER "Bela Fleck & The Flecktones"
    INDEX 00 00:00:00
FILE "01 - Bil Mon.wav" WAVE
    INDEX 01 00:00:00
FILE "02 - The Ballad Of Jed Clampett.wav" WAVE
  TRACK 02 AUDIO
    TITLE "The Ballad Of Jed Clampett"
    PERFORMER "Bela Fleck & The Flecktones"
    INDEX 01 00:00:00
  TRACK 03 AUDIO
    TITLE "Puffy"
    PERFORMER "Bela Fleck & The Flecktones"
    INDEX 00 04:06:35
FILE "03 - Puffy.wav" WAVE
    INDEX 01 00:00:00
FILE "04 - New Math.wav" WAVE
  TRACK 04 AUDIO
    TITLE "New Math"
    PERFORMER "Bela Fleck & The Flecktones"
    INDEX 01 00:00:00
FILE "05 - Longitude.wav" WAVE
  TRACK 05 AUDIO
    TITLE "Longitude"
    PERFORMER "Bela Fleck & The Flecktones"
    INDEX 01 00:00:00
FILE "06 - Latitude.wav" WAVE
  TRACK 06 AUDIO
    TITLE "Latitude"
    PERFORMER "Bela Fleck & The Flecktones"
    INDEX 01 00:00:00
FILE "07 - Centrifuge.wav" WAVE
  TRACK 07 AUDIO
    TITLE "Centrifuge"
    PERFORMER "Bela Fleck & The Flecktones"
    INDEX 01 00:00:00
FILE "08 - Off The Top (The Gravity Wheel).wav" WAVE
  TRACK 08 AUDIO
    TITLE "Off The Top (The Gravity Wheel)"
    PERFORMER "Bela Fleck & The Flecktones"
    INDEX 01 00:00:00
FILE "09 - Off The Top (Line Dance).wav" WAVE
  TRACK 09 AUDIO
    TITLE "Off The Top (Line Dance)"
    PERFORMER "Bela Fleck & The Flecktones"
    INDEX 01 00:00:00
  TRACK 10 AUDIO
    TITLE "Follow The Line"
    PERFORMER "Bela Fleck & The Flecktones"
    INDEX 00 04:53:64
FILE "10 - Follow The Line.wav" WAVE
    INDEX 01 00:00:00
Оригинальный файл CUE, сгенерированный ЕАС, сохраняете и помещаете в раздачу вместе с отредактированным рабочим CUE.
9.9. Добавляете скрытый трек в плейлист .m3u (если таковой присутствует).
9.10. Обязательно прописываете все требуемые тэги контейнера скрытого трека в любой программе, способной это сделать (например Mp3tag).

Внимание! Сгенерированный ЕАС файл отчёта (Название_скрытого_трека.log) должен быть сохранён и помещён в раздачу.
Инструкцию подготовил simple.i


Последний раз редактировалось: Bratok (11.06.2010 20:22), всего редактировалось 5 раз(а)

Яндекс.Метрика powered by Sphinx


В Н И М А Н И Е
Сайт не распространяет и не хранит электронные версии произведений, а лишь бесплатно и без коммерческой выгоды (не требуя взамен платы,
SMS и т.д.) предоставляет доступ к создаваемому пользователями каталогу ссылок на торрент-файлы, которые содержат только списки хеш-сумм.
Убедительная просьба с жалобами обращаться напрямую к пользователю, разместившему торрент файл.

Вверх