Loading...
Error

(R&B/Soul) Rihanna - Rated R: Remixed (Explicit Version) (2010) [FLAC (Tracks+.CUE), lossless]

Статистика раздачи
Размер:  377 MB   |    Зарегистрирован:  7 лет 5 месяцев   |    Скачан:  2 раза

Полного источника не было: 3 года 2 месяца

Сидов:  0  |  0 KB/s  ]   Личеров:  1  |  0 KB/s  ]

* - сиды/пиры с внешних источников

   
 
Автор Сообщение

Bratok Пол:Муж

09-Июн-2010 19:51

Rihanna - Rated R: Remixed (Explicit Version)
Жанр: R&B/Soul
Год выпуска: 2010
Производитель диска: Германия
Аудиокодек: FLAC
Тип рипа: Tracks+.CUE
Битрейт аудио: lossless
Продолжительность: 00:53:06

Треклист:

01. Mad House (Chew Fu Straight Jacket Fix) [0:02:14.37]
02. Russian Roulette (Chew Fu Black Russian Fix) [0:05:56.74]
03. ROCKSTAR 101 (Chew Fu Teachers Pet Fix) [0:04:29.00]
04. Wait Your Turn (Chew Fu Can’t Wait No More Fix) [0:05:11.05]
05. Photographs feat. will.i.am (Chew Fu 35mm Fix) [0:06:01.29]
06. Rude Boy (Chew Fu Bumbaclot Fix) [0:05:43.26]
07. Hard feat. Jeezy (Chew Fu Granite Fix) [0:05:29.59]
08. G4L (Chew Fu Guns In The Air Fix) [0:05:27.54]
09. Fire Bomb (Chew Fu Molotov Fix) [0:07:00.22]
10. Stupid In Love (Chew Fu Small Room Fix) [0:05:32.56]

Релиз группы:

Exact Audio Copy V0.99 prebeta 5 from 4. May 2009

EAC extraction logfile from 9. June 2010, 23:53

Rihanna / Rated R: Remixed (Explicit Version)

Used drive : TSSTcorpCDDVDW SH-S202J Adapter: 0 ID: 0

Read mode : Secure
Utilize accurate stream : Yes
Defeat audio cache : Yes
Make use of C2 pointers : No

Read offset correction : 6
Overread into Lead-In and Lead-Out : No
Fill up missing offset samples with silence : Yes
Delete leading and trailing silent blocks : No
Null samples used in CRC calculations : Yes
Used interface : Native Win32 interface for Win NT & 2000
Gap handling : Appended to previous track

Used output format : User Defined Encoder
Selected bitrate : 128 kBit/s
Quality : High
Add ID3 tag : No
Command line compressor : C:\Program Files\Exact Audio Copy\Flac\flac.exe
Additional command line options : -8 -V -T "ARTIST=%a" -T "TITLE=%t" -T "ALBUM=%g" -T "DATE=%y" -T "TRACKNUMBER=%n" -T "GENRE=%m" -T "COMMENT=EAC FLAC -8" %s

TOC of the extracted CD

Track | Start | Length | Start sector | End sector
---------------------------------------------------------
1 | 0:00.00 | 2:14.37 | 0 | 10086
2 | 2:14.37 | 5:56.74 | 10087 | 36860
3 | 8:11.36 | 4:29.00 | 36861 | 57035
4 | 12:40.36 | 5:11.05 | 57036 | 80365
5 | 17:51.41 | 6:01.29 | 80366 | 107469
6 | 23:52.70 | 5:43.26 | 107470 | 133220
7 | 29:36.21 | 5:29.59 | 133221 | 157954
8 | 35:06.05 | 5:27.54 | 157955 | 182533
9 | 40:33.59 | 7:00.22 | 182534 | 214055
10 | 47:34.06 | 5:32.56 | 214056 | 239011

Track 1

Filename D:\музыка на торент\Rihanna Rated R Remixed (Explicit Version)\01. Rihanna – Mad House (Chew Fu Straight Jacket Fix).wav

Pre-gap length 0:00:02.00

Peak level 97.7 %
Track quality 99.9 %
Test CRC A73D9B00
Copy CRC A73D9B00
Track not present in AccurateRip database
Copy OK

Track 2

Filename D:\музыка на торент\Rihanna Rated R Remixed (Explicit Version)\02. Rihanna – Russian Roulette (Chew Fu Black Russian Fix).wav

Pre-gap length 0:00:01.58

Peak level 97.7 %
Track quality 100.0 %
Test CRC C28F8D95
Copy CRC C28F8D95
Track not present in AccurateRip database
Copy OK

Track 3

Filename D:\музыка на торент\Rihanna Rated R Remixed (Explicit Version)\03. Rihanna – ROCKSTAR 101 (Chew Fu Teachers Pet Fix).wav

Pre-gap length 0:00:01.58

Peak level 97.7 %
Track quality 100.0 %
Test CRC B45A4D88
Copy CRC B45A4D88
Track not present in AccurateRip database
Copy OK

Track 4

Filename D:\музыка на торент\Rihanna Rated R Remixed (Explicit Version)\04. Rihanna – Wait Your Turn (Chew Fu Can’t Wait No More Fix).wav

Pre-gap length 0:00:01.58

Peak level 97.7 %
Track quality 100.0 %
Test CRC 6AF2E260
Copy CRC 6AF2E260
Track not present in AccurateRip database
Copy OK

Track 5

Filename D:\музыка на торент\Rihanna Rated R Remixed (Explicit Version)\05. Rihanna – Photographs feat. will.i.am (Chew Fu 35mm Fix).wav

Pre-gap length 0:00:01.58

Peak level 97.7 %
Track quality 100.0 %
Test CRC BA591494
Copy CRC BA591494
Track not present in AccurateRip database
Copy OK

Track 6

Filename D:\музыка на торент\Rihanna Rated R Remixed (Explicit Version)\06. Rihanna – Rude Boy (Chew Fu Bumbaclot Fix).wav

Pre-gap length 0:00:01.58

Peak level 97.7 %
Track quality 99.9 %
Test CRC 8B6E9362
Copy CRC 8B6E9362
Track not present in AccurateRip database
Copy OK

Track 7

Filename D:\музыка на торент\Rihanna Rated R Remixed (Explicit Version)\07. Rihanna – Hard feat. Jeezy (Chew Fu Granite Fix).wav

Pre-gap length 0:00:01.58

Peak level 97.7 %
Track quality 100.0 %
Test CRC 8AB4D91B
Copy CRC 8AB4D91B
Track not present in AccurateRip database
Copy OK

Track 8

Filename D:\музыка на торент\Rihanna Rated R Remixed (Explicit Version)\08. Rihanna – G4L (Chew Fu Guns In The Air Fix).wav

Pre-gap length 0:00:01.58

Peak level 97.7 %
Track quality 100.0 %
Test CRC 5B282B2A
Copy CRC 5B282B2A
Track not present in AccurateRip database
Copy OK

Track 9

Filename D:\музыка на торент\Rihanna Rated R Remixed (Explicit Version)\09. Rihanna – Fire Bomb (Chew Fu Molotov Fix).wav

Pre-gap length 0:00:01.58

Peak level 97.7 %
Track quality 100.0 %
Test CRC 88F22967
Copy CRC 88F22967
Track not present in AccurateRip database
Copy OK

Track 10

Filename D:\музыка на торент\Rihanna Rated R Remixed (Explicit Version)\10. Rihanna – Stupid In Love (Chew Fu Small Room Fix).wav

Pre-gap length 0:00:01.58

Peak level 97.7 %
Track quality 99.9 %
Test CRC CC815022
Copy CRC CC815022
Track not present in AccurateRip database
Copy OK

None of the tracks are present in the AccurateRip database

No errors occurred

End of status report
AUDIOCHECKER v2.0 beta (build 457) - by Dester - opdester@freemail.hu
~~~~~~~~~~~~~~~~~~~~~~~~~~~~~~~~~~
-=== НЕ РЕДАКТИРУЙТЕ ЭТОТ ФАЙЛ! ===-

Путь: ...\Rihanna Rated R Remixed (Explicit Version)

01 -=- 01. Rihanna – Mad House (Chew Fu Straight Jacket Fix).flac -=- CDDA (100%)
02 -=- 02. Rihanna – Russian Roulette (Chew Fu Black Russian Fix).flac -=- CDDA (99%)
03 -=- 03. Rihanna – ROCKSTAR 101 (Chew Fu Teachers Pet Fix).flac -=- CDDA (100%)
04 -=- 04. Rihanna – Wait Your Turn (Chew Fu Can’t Wait No More Fix).flac -=- CDDA (100%)
05 -=- 05. Rihanna – Photographs feat. will.i.am (Chew Fu 35mm Fix).flac -=- CDDA (99%)
06 -=- 06. Rihanna – Rude Boy (Chew Fu Bumbaclot Fix).flac -=- CDDA (100%)
07 -=- 07. Rihanna – Hard feat. Jeezy (Chew Fu Granite Fix).flac -=- CDDA (100%)
08 -=- 08. Rihanna – G4L (Chew Fu Guns In The Air Fix).flac -=- CDDA (100%)
09 -=- 09. Rihanna – Fire Bomb (Chew Fu Molotov Fix).flac -=- CDDA (100%)
10 -=- 10. Rihanna – Stupid In Love (Chew Fu Small Room Fix).flac -=- CDDA (99%)

Сводка 99,70% CDDA

205182996

Этот торрент недоступен для скачивания без регистрации, однако доступен по публичной magnet-ссылке (источники с публичных трекеров). Перед использованием ссылки прочтите, пожалуйста Пользовательское соглашение, а также как можно дольше оставайтесь на раздаче! Для того, чтобы скачать сам торрент-файл (который видит больше источников), а также для того, чтобы поблагодарить релизера, вам необходимо зарегистрироваться. Если регистрироваться лень - вы можете также попробовать скачать релиз по нашим партнерским ссылкам ниже.

[underverse.su].t10546.torrent
Трекер: Зарегистрирован   [ 09.06.2010 19:56 ]  

Статус: проверено (by Bratok at 09.06.2010 19:57)
Поблагодарили: пока никто не поблагодарил...
Тип торрента: публичный - доступные источники с открытых трекеров: 
Размер: 377 MB (занимает 0,08 DVDR, для записи нужно 1 болванка DVDR/RW)
 
 
Похожие темы
Форум Тема Автор Торрент Отв. Посл. сооб.
Зарубежный R'n'B (Lossless) (R&B/Soul) Timbaland - Presents Shock Value (2007) [FLAC (Tracks+.CUE), lossless] Bratok
0 | 0

1 | 2204

9

24.05.2010 14:23

Зарубежный R'n'B (Lossless) (R&B/Soul) Rihanna - Good Girl Gone Bad: The Remixes (2009) [FLAC (Tracks+.CUE), lossless] Bratok
0 | 2

0 | 1626

3

22.05.2010 19:38

Зарубежный R'n'B (Lossless) (R&B/Soul) Timbaland - Presents Shock Value II (2009) [FLAC (Tracks+.CUE), lossless] Bratok
0 | 0

0 | 1882

7

23.05.2010 04:34

sotnic 

13-Дек-2012 15:42

Встаньте на раздачу!

Яндекс.Метрика powered by Sphinx


В Н И М А Н И Е
Сайт не распространяет и не хранит электронные версии произведений, а лишь бесплатно и без коммерческой выгоды (не требуя взамен платы,
SMS и т.д.) предоставляет доступ к создаваемому пользователями каталогу ссылок на торрент-файлы, которые содержат только списки хеш-сумм.
Убедительная просьба с жалобами обращаться напрямую к пользователю, разместившему торрент файл.

Вверх