Loading...
Error

(R&B|Pop) Mariah Carey - Memoirs Of An Imperfect Angel (2009) [FLAC (Tracks+.CUE), lossless]

Статистика раздачи
Размер:  501 MB   |    Зарегистрирован:  7 лет 5 месяцев   |    Скачан:  2 раза

Полного источника не было: 1 год 6 месяцев

Сидов:  0  |  0 KB/s  ]   Личеров:  0  |  0 KB/s  ]

* - сиды/пиры с внешних источников

   
 
Автор Сообщение

Bratok Пол:Муж

03-Июн-2010 10:05

Mariah Carey - Memoirs Of An Imperfect Angel



Жанр: R&B|Pop
Год выпуска: 2009
Производитель диска: Нидерланды
Аудиокодек: FLAC
Тип рипа: Tracks+.CUE
Битрейт аудио: lossless
Продолжительность: 01:12:21




    01. Betcha Gon' Know (The Prologue) [0:04:00.46]
    02. Obsessed [0:04:02.20]
    03. H.A.T.E.U. [0:04:27.62]
    04. Candy Bling [0:04:03.14]
    05. Ribbon [0:04:21.04]
    06. Inseparable [0:03:33.72]
    07. Standing O [0:04:00.02]
    08. It's A Wrap [0:04:00.74]
    09. Up Out My Face [0:03:41.24]
    10. Up Out My Face (The Reprise) [0:00:51.44]
    11. More Than Just Friends [0:03:37.46]
    12. The Impossible [0:04:00.50]
    13. The Impossible (The Reprise) [0:02:25.65]
    14. Angel (The Prelude) [0:01:04.20]
    15. Angels Cry [0:04:01.86]
    16. Languishing (The Interlude) [0:02:33.62]
    17. I Want To Know What Love Is [0:03:27.42]
    18. Obsessed (Cahill Radio Mix) [0:03:22.40]
    19. Obsessed (Seamus Haji & Paul Emanuel Radio Edit) [0:03:14.05]
    20. Obsessed (Jump Smokers Radio Edit) [0:03:21.28]
    21. Obsessed (Friscia And Lamboy Radio Mix) [0:04:11.53][/align]
Exact Audio Copy V0.99 prebeta 5 from 4. May 2009

EAC extraction logfile from 3. June 2010, 13:39

Mariah Carey / Memoirs Of An Imperfect Angel

Used drive : TSSTcorpCDDVDW SH-S202J Adapter: 0 ID: 0

Read mode : Secure
Utilize accurate stream : Yes
Defeat audio cache : Yes
Make use of C2 pointers : No

Read offset correction : 6
Overread into Lead-In and Lead-Out : No
Fill up missing offset samples with silence : Yes
Delete leading and trailing silent blocks : No
Null samples used in CRC calculations : Yes
Used interface : Native Win32 interface for Win NT & 2000
Gap handling : Appended to previous track

Used output format : User Defined Encoder
Selected bitrate : 128 kBit/s
Quality : High
Add ID3 tag : No
Command line compressor : C:\Program Files\Exact Audio Copy\Flac\flac.exe
Additional command line options : -8 -V -T "ARTIST=%a" -T "TITLE=%t" -T "ALBUM=%g" -T "DATE=%y" -T "TRACKNUMBER=%n" -T "GENRE=%m" -T "COMMENT=EAC FLAC -8" %s

TOC of the extracted CD

Track | Start | Length | Start sector | End sector
---------------------------------------------------------
1 | 0:00.00 | 4:00.35 | 0 | 18034
2 | 4:00.35 | 4:02.15 | 18035 | 36199
3 | 8:02.50 | 4:27.47 | 36200 | 56271
4 | 12:30.22 | 4:03.11 | 56272 | 74507
5 | 16:33.33 | 4:21.03 | 74508 | 94085
6 | 20:54.36 | 3:33.54 | 94086 | 110114
7 | 24:28.15 | 4:00.02 | 110115 | 128116
8 | 28:28.17 | 4:00.56 | 128117 | 146172
9 | 32:28.73 | 3:41.18 | 146173 | 162765
10 | 36:10.16 | 0:51.33 | 162766 | 166623
11 | 37:01.49 | 3:37.35 | 166624 | 182933
12 | 40:39.09 | 4:00.38 | 182934 | 200971
13 | 44:39.47 | 2:25.49 | 200972 | 211895
14 | 47:05.21 | 1:04.15 | 211896 | 216710
15 | 48:09.36 | 4:01.65 | 216711 | 234850
16 | 52:11.26 | 2:33.47 | 234851 | 246372
17 | 54:44.73 | 3:27.32 | 246373 | 261929
18 | 58:12.30 | 3:22.30 | 261930 | 277109
19 | 61:34.60 | 3:14.04 | 277110 | 291663
20 | 64:48.64 | 3:21.21 | 291664 | 306759
21 | 68:10.10 | 4:11.40 | 306760 | 325624

Track 1

Filename D:\музыка на торент\Mariah Carey Memoirs Of An Imperfect Angel\01. Mariah Carey – Betcha Gon' Know (The Prologue).wav

Pre-gap length 0:00:02.00

Peak level 98.8 %
Track quality 100.0 %
Test CRC 40A4B34C
Copy CRC 40A4B34C
Accurately ripped (confidence 18) [6B6F772E]
Copy OK

Track 2

Filename D:\музыка на торент\Mariah Carey Memoirs Of An Imperfect Angel\02. Mariah Carey – Obsessed.wav

Peak level 100.0 %
Track quality 100.0 %
Test CRC 1233F259
Copy CRC 1233F259
Accurately ripped (confidence 18) [03A559AD]
Copy OK

Track 3

Filename D:\музыка на торент\Mariah Carey Memoirs Of An Imperfect Angel\03. Mariah Carey – H.A.T.E.U..wav

Peak level 99.9 %
Track quality 99.9 %
Test CRC 84840AD2
Copy CRC 84840AD2
Accurately ripped (confidence 18) [873D75A7]
Copy OK

Track 4

Filename D:\музыка на торент\Mariah Carey Memoirs Of An Imperfect Angel\04. Mariah Carey – Candy Bling.wav

Peak level 96.3 %
Track quality 100.0 %
Test CRC 6CC1F53E
Copy CRC 6CC1F53E
Accurately ripped (confidence 18) [5BB7CA83]
Copy OK

Track 5

Filename D:\музыка на торент\Mariah Carey Memoirs Of An Imperfect Angel\05. Mariah Carey – Ribbon.wav

Peak level 98.8 %
Track quality 100.0 %
Test CRC E0A95398
Copy CRC E0A95398
Accurately ripped (confidence 18) [0C1CD16C]
Copy OK

Track 6

Filename D:\музыка на торент\Mariah Carey Memoirs Of An Imperfect Angel\06. Mariah Carey – Inseparable.wav

Peak level 98.8 %
Track quality 100.0 %
Test CRC 74759AA6
Copy CRC 74759AA6
Accurately ripped (confidence 18) [002C694F]
Copy OK

Track 7

Filename D:\музыка на торент\Mariah Carey Memoirs Of An Imperfect Angel\07. Mariah Carey – Standing O.wav

Peak level 98.8 %
Track quality 100.0 %
Test CRC 52D3FA03
Copy CRC 52D3FA03
Accurately ripped (confidence 18) [2F82D305]
Copy OK

Track 8

Filename D:\музыка на торент\Mariah Carey Memoirs Of An Imperfect Angel\08. Mariah Carey – It's A Wrap.wav

Peak level 97.7 %
Track quality 99.9 %
Test CRC 1C2CE27F
Copy CRC 1C2CE27F
Accurately ripped (confidence 18) [752247E5]
Copy OK

Track 9

Filename D:\музыка на торент\Mariah Carey Memoirs Of An Imperfect Angel\09. Mariah Carey – Up Out My Face.wav

Pre-gap length 0:00:01.86

Peak level 96.6 %
Track quality 100.0 %
Test CRC 8C3EBE17
Copy CRC 8C3EBE17
Accurately ripped (confidence 18) [2FF0B29F]
Copy OK

Track 10

Filename D:\музыка на торент\Mariah Carey Memoirs Of An Imperfect Angel\10. Mariah Carey – Up Out My Face (The Reprise).wav

Peak level 89.8 %
Track quality 99.7 %
Test CRC B3B17E9C
Copy CRC B3B17E9C
Accurately ripped (confidence 18) [6CC62B5F]
Copy OK

Track 11

Filename D:\музыка на торент\Mariah Carey Memoirs Of An Imperfect Angel\11. Mariah Carey – More Than Just Friends.wav

Peak level 98.8 %
Track quality 99.9 %
Test CRC 95D01B1A
Copy CRC 95D01B1A
Accurately ripped (confidence 18) [FD49A52F]
Copy OK

Track 12

Filename D:\музыка на торент\Mariah Carey Memoirs Of An Imperfect Angel\12. Mariah Carey – The Impossible.wav

Peak level 98.8 %
Track quality 100.0 %
Test CRC 15074A72
Copy CRC 15074A72
Accurately ripped (confidence 18) [FC8465B6]
Copy OK

Track 13

Filename D:\музыка на торент\Mariah Carey Memoirs Of An Imperfect Angel\13. Mariah Carey – The Impossible (The Reprise).wav

Peak level 96.5 %
Track quality 100.0 %
Test CRC 3E7A0B3C
Copy CRC 3E7A0B3C
Accurately ripped (confidence 17) [3587085D]
Copy OK

Track 14

Filename D:\музыка на торент\Mariah Carey Memoirs Of An Imperfect Angel\14. Mariah Carey – Angel (The Prelude).wav

Peak level 99.8 %
Track quality 100.0 %
Test CRC 7E4A37DE
Copy CRC 7E4A37DE
Accurately ripped (confidence 18) [3BD92404]
Copy OK

Track 15

Filename D:\музыка на торент\Mariah Carey Memoirs Of An Imperfect Angel\15. Mariah Carey – Angels Cry.wav

Peak level 99.8 %
Track quality 100.0 %
Test CRC 3891CB4F
Copy CRC 3891CB4F
Accurately ripped (confidence 16) [F0A370C4]
Copy OK

Track 16

Filename D:\музыка на торент\Mariah Carey Memoirs Of An Imperfect Angel\16. Mariah Carey – Languishing (The Interlude).wav

Peak level 95.5 %
Track quality 100.0 %
Test CRC 48A1C9FD
Copy CRC 48A1C9FD
Accurately ripped (confidence 17) [6BBDBB46]
Copy OK

Track 17

Filename D:\музыка на торент\Mariah Carey Memoirs Of An Imperfect Angel\17. Mariah Carey – I Want To Know What Love Is.wav

Peak level 98.8 %
Track quality 100.0 %
Test CRC 016FDF7B
Copy CRC 016FDF7B
Accurately ripped (confidence 17) [FADB2263]
Copy OK

Track 18

Filename D:\музыка на торент\Mariah Carey Memoirs Of An Imperfect Angel\18. Mariah Carey – Obsessed (Cahill Radio Mix).wav

Pre-gap length 0:00:00.29

Peak level 100.0 %
Track quality 100.0 %
Test CRC BAEB5834
Copy CRC BAEB5834
Accurately ripped (confidence 16) [54C6FDB4]
Copy OK

Track 19

Filename D:\музыка на торент\Mariah Carey Memoirs Of An Imperfect Angel\19. Mariah Carey – Obsessed (Seamus Haji & Paul Emanuel Radio Edit).wav

Pre-gap length 0:00:01.72

Peak level 100.0 %
Track quality 100.0 %
Test CRC FB971C03
Copy CRC FB971C03
Accurately ripped (confidence 16) [341F56C5]
Copy OK

Track 20

Filename D:\музыка на торент\Mariah Carey Memoirs Of An Imperfect Angel\20. Mariah Carey – Obsessed (Jump Smokers Radio Edit).wav

Pre-gap length 0:00:01.69

Peak level 100.0 %
Track quality 100.0 %
Test CRC 19F4019C
Copy CRC 19F4019C
Accurately ripped (confidence 16) [7DEFBA86]
Copy OK

Track 21

Filename D:\музыка на торент\Mariah Carey Memoirs Of An Imperfect Angel\21. Mariah Carey – Obsessed (Friscia And Lamboy Radio Mix).wav

Pre-gap length 0:00:01.56

Peak level 100.0 %
Track quality 100.0 %
Test CRC 9FBA8EFE
Copy CRC 9FBA8EFE
Accurately ripped (confidence 16) [CCF079AC]
Copy OK

All tracks accurately ripped

No errors occurred

End of status report
Релиз группы:

Этот торрент недоступен для скачивания без регистрации, однако доступен по публичной magnet-ссылке (источники с публичных трекеров). Перед использованием ссылки прочтите, пожалуйста Пользовательское соглашение, а также как можно дольше оставайтесь на раздаче! Для того, чтобы скачать сам торрент-файл (который видит больше источников), а также для того, чтобы поблагодарить релизера, вам необходимо зарегистрироваться. Если регистрироваться лень - вы можете также попробовать скачать релиз по нашим партнерским ссылкам ниже.

[underverse.su].t10476.torrent
Трекер: Зарегистрирован   [ 03.06.2010 10:05 ]  

Статус: проверено (by Bratok at 03.06.2010 10:11)
Поблагодарили: пока никто не поблагодарил...
Тип торрента: публичный - доступные источники с открытых трекеров: 
Размер: 501 MB (занимает 0,11 DVDR, для записи нужно 1 болванка DVDR/RW)
 
 
Похожие темы
Форум Тема Автор Торрент Отв. Посл. сооб.
Зарубежный R'n'B (Lossless) (R&B|Pop) Mariah Carey - E=MC2 (2008) [FLAC (Tracks+.CUE), lossless] Bratok
0 | 0

0 | 1684

4

01.06.2010 20:21



Последний раз редактировалось: Bratok (09.06.2010 20:03), всего редактировалось 4 раз(а)

Bratok Пол:Муж

03-Июн-2010 10:59

Нужны сканы,пишите в личку.

Яндекс.Метрика powered by Sphinx


В Н И М А Н И Е
Сайт не распространяет и не хранит электронные версии произведений, а лишь бесплатно и без коммерческой выгоды (не требуя взамен платы,
SMS и т.д.) предоставляет доступ к создаваемому пользователями каталогу ссылок на торрент-файлы, которые содержат только списки хеш-сумм.
Убедительная просьба с жалобами обращаться напрямую к пользователю, разместившему торрент файл.

Вверх