Loading...
Error

(R&B|Pop) Mariah Carey - E=MC2 (2008) [FLAC (Tracks+.CUE), lossless]

Статистика раздачи
Размер:  364 MB   |    Зарегистрирован:  7 лет 5 месяцев   |    Скачан:  4 раза

Полного источника не было: 7 месяцев

Сидов:  0  |  0 KB/s  ]   Личеров:  0  |  0 KB/s  ]

* - сиды/пиры с внешних источников

   
 
Автор Сообщение

Bratok Пол:Муж

01-Июн-2010 20:21

Mariah Carey - E=MC2
Жанр: R&B|Pop
Год выпуска: 2008
Производитель диска: Германия
Аудиокодек: FLAC
Тип рипа: Tracks+.CUE
Битрейт аудио: lossless
Продолжительность: 00:52:14

Треклист:

01. Migrate (Feat. T-Pain) [0:04:17.89]
02. Touch My Body [0:03:24.73]
03. Cruise Control (Feat. Damian Marley) [0:03:32.86]
04. I Stay In Love [0:03:32.00]
05. Side Effects (Feat. Young Jeezy) [0:04:22.06]
06. I'm That Chick [0:03:31.40]
07. Love Story [0:03:56.04]
08. I'll Be Lovin' U Long Time [0:03:01.02]
09. Last Kiss [0:03:36.30]
10. Thanx 4 Nothin' [0:03:05.33]
11. O.O.C. [0:03:26.49]
12. For The Record [0:03:26.30]
13. Bye Bye [0:04:26.82]
14. I Wish You Well [0:04:35.46]

Exact Audio Copy V0.99 prebeta 5 from 4. May 2009

EAC extraction logfile from 2. June 2010, 0:18

Mariah Carey / E=MC2

Used drive : TSSTcorpCDDVDW SH-S202J Adapter: 0 ID: 0

Read mode : Secure
Utilize accurate stream : Yes
Defeat audio cache : Yes
Make use of C2 pointers : No

Read offset correction : 6
Overread into Lead-In and Lead-Out : No
Fill up missing offset samples with silence : Yes
Delete leading and trailing silent blocks : No
Null samples used in CRC calculations : Yes
Used interface : Native Win32 interface for Win NT & 2000
Gap handling : Appended to previous track

Used output format : User Defined Encoder
Selected bitrate : 128 kBit/s
Quality : High
Add ID3 tag : No
Command line compressor : C:\Program Files\Exact Audio Copy\Flac\flac.exe
Additional command line options : -8 -V -T "ARTIST=%a" -T "TITLE=%t" -T "ALBUM=%g" -T "DATE=%y" -T "TRACKNUMBER=%n" -T "GENRE=%m" -T "COMMENT=EAC FLAC -8" %s

TOC of the extracted CD

Track | Start | Length | Start sector | End sector
---------------------------------------------------------
1 | 0:00.00 | 4:17.67 | 0 | 19341
2 | 4:17.67 | 3:24.55 | 19342 | 34696
3 | 7:42.47 | 3:32.65 | 34697 | 50661
4 | 11:15.37 | 3:32.00 | 50662 | 66561
5 | 14:47.37 | 4:22.05 | 66562 | 86216
6 | 19:09.42 | 3:31.30 | 86217 | 102071
7 | 22:40.72 | 3:56.03 | 102072 | 119774
8 | 26:37.00 | 3:01.02 | 119775 | 133351
9 | 29:38.02 | 3:36.23 | 133352 | 149574
10 | 33:14.25 | 3:05.25 | 149575 | 163474
11 | 36:19.50 | 3:26.37 | 163475 | 178961
12 | 39:46.12 | 3:26.23 | 178962 | 194434
13 | 43:12.35 | 4:26.62 | 194435 | 214446
14 | 47:39.22 | 4:35.35 | 214447 | 235106

Track 1

Filename D:\музыка на торент\Mariah Carey E=MC2\01. Mariah Carey – Migrate (Feat. T-Pain).wav

Pre-gap length 0:00:02.00

Peak level 100.0 %
Track quality 100.0 %
Test CRC 7B37F7DD
Copy CRC 7B37F7DD
Accurately ripped (confidence 11) [B9712118]
Copy OK

Track 2

Filename D:\музыка на торент\Mariah Carey E=MC2\02. Mariah Carey – Touch My Body.wav

Peak level 100.0 %
Track quality 100.0 %
Test CRC 5D5F867D
Copy CRC 5D5F867D
Accurately ripped (confidence 12) [04473B44]
Copy OK

Track 3

Filename D:\музыка на торент\Mariah Carey E=MC2\03. Mariah Carey – Cruise Control (Feat. Damian Marley).wav

Peak level 100.0 %
Track quality 99.9 %
Test CRC 68276CC1
Copy CRC 68276CC1
Accurately ripped (confidence 11) [1BCB8571]
Copy OK

Track 4

Filename D:\музыка на торент\Mariah Carey E=MC2\04. Mariah Carey – I Stay In Love.wav

Peak level 100.0 %
Track quality 100.0 %
Test CRC 77210965
Copy CRC 77210965
Accurately ripped (confidence 11) [EF54F179]
Copy OK

Track 5

Filename D:\музыка на торент\Mariah Carey E=MC2\05. Mariah Carey – Side Effects (Feat. Young Jeezy).wav

Peak level 100.0 %
Track quality 100.0 %
Test CRC 9BC5419E
Copy CRC 9BC5419E
Accurately ripped (confidence 11) [C2985C39]
Copy OK

Track 6

Filename D:\музыка на торент\Mariah Carey E=MC2\06. Mariah Carey – I'm That Chick.wav

Peak level 100.0 %
Track quality 100.0 %
Test CRC 4DC4CF82
Copy CRC 4DC4CF82
Accurately ripped (confidence 12) [672F6920]
Copy OK

Track 7

Filename D:\музыка на торент\Mariah Carey E=MC2\07. Mariah Carey – Love Story.wav

Peak level 100.0 %
Track quality 100.0 %
Test CRC 2C330552
Copy CRC 2C330552
Accurately ripped (confidence 11) [F2F4F9EC]
Copy OK

Track 8

Filename D:\музыка на торент\Mariah Carey E=MC2\08. Mariah Carey – I'll Be Lovin' U Long Time.wav

Peak level 100.0 %
Track quality 100.0 %
Test CRC 6CB98E60
Copy CRC 6CB98E60
Accurately ripped (confidence 10) [FBF2092B]
Copy OK

Track 9

Filename D:\музыка на торент\Mariah Carey E=MC2\09. Mariah Carey – Last Kiss.wav

Peak level 100.0 %
Track quality 100.0 %
Test CRC 3253BEA0
Copy CRC 3253BEA0
Accurately ripped (confidence 11) [C10AB2D5]
Copy OK

Track 10

Filename D:\музыка на торент\Mariah Carey E=MC2\10. Mariah Carey – Thanx 4 Nothin'.wav

Peak level 100.0 %
Track quality 100.0 %
Test CRC 80F01360
Copy CRC 80F01360
Accurately ripped (confidence 11) [43171E3F]
Copy OK

Track 11

Filename D:\музыка на торент\Mariah Carey E=MC2\11. Mariah Carey – O.O.C..wav

Peak level 100.0 %
Track quality 100.0 %
Test CRC 896BF7A7
Copy CRC 896BF7A7
Accurately ripped (confidence 11) [D4153D42]
Copy OK

Track 12

Filename D:\музыка на торент\Mariah Carey E=MC2\12. Mariah Carey – For The Record.wav

Peak level 100.0 %
Track quality 100.0 %
Test CRC CC4158A2
Copy CRC CC4158A2
Accurately ripped (confidence 11) [83115ADF]
Copy OK

Track 13

Filename D:\музыка на торент\Mariah Carey E=MC2\13. Mariah Carey – Bye Bye.wav

Peak level 100.0 %
Track quality 100.0 %
Test CRC 36AE3DEE
Copy CRC 36AE3DEE
Accurately ripped (confidence 11) [C088B43C]
Copy OK

Track 14

Filename D:\музыка на торент\Mariah Carey E=MC2\14. Mariah Carey – I Wish You Well.wav

Peak level 100.0 %
Track quality 100.0 %
Test CRC BCB5DE39
Copy CRC BCB5DE39
Accurately ripped (confidence 11) [9F269F53]
Copy OK

All tracks accurately ripped

No errors occurred
Релиз группы:

Этот торрент недоступен для скачивания без регистрации, однако доступен по публичной magnet-ссылке (источники с публичных трекеров). Перед использованием ссылки прочтите, пожалуйста Пользовательское соглашение, а также как можно дольше оставайтесь на раздаче! Для того, чтобы скачать сам торрент-файл (который видит больше источников), а также для того, чтобы поблагодарить релизера, вам необходимо зарегистрироваться. Если регистрироваться лень - вы можете также попробовать скачать релиз по нашим партнерским ссылкам ниже.

[underverse.su].t10443.torrent
Трекер: Зарегистрирован   [ 01.06.2010 20:21 ]  

Статус: проверено (by Bratok at 01.06.2010 20:24)
Поблагодарили: пока никто не поблагодарил...
Тип торрента: публичный - доступные источники с открытых трекеров: 
Размер: 364 MB (занимает 0,08 DVDR, для записи нужно 1 болванка DVDR/RW)
 
 
Похожие темы
Форум Тема Автор Торрент Отв. Посл. сооб.
Зарубежный R'n'B (Lossless) (R&B|Pop) Mariah Carey - Memoirs Of An Imperfect Angel (2009) [FLAC (Tracks+.CUE), lossless] Bratok
0 | 0

1 | 1608

2

03.06.2010 10:59


Яндекс.Метрика powered by Sphinx


В Н И М А Н И Е
Сайт не распространяет и не хранит электронные версии произведений, а лишь бесплатно и без коммерческой выгоды (не требуя взамен платы,
SMS и т.д.) предоставляет доступ к создаваемому пользователями каталогу ссылок на торрент-файлы, которые содержат только списки хеш-сумм.
Убедительная просьба с жалобами обращаться напрямую к пользователю, разместившему торрент файл.

Вверх