Loading...
Error

(Pop) VA - Eurovision Song Contest (2CD) (2010) [FLAC (Tracks+.CUE), lossless]

Статистика раздачи
Размер:  814 MB   |    Зарегистрирован:  7 лет 4 месяца   |    Скачан:  3 раза

Полного источника не было: 3 года 1 месяц

Сидов:  0  |  0 KB/s  ]   Личеров:  0  |  0 KB/s  ]

* - сиды/пиры с внешних источников

   
 
Автор Сообщение

Bratok Пол:Муж

30-Май-2010 19:34

VA - Eurovision Song Contest 2010



Жанр: Pop
Год выпуска: 2010
Производитель диска: Нидерланды
Аудиокодек: FLAC
Тип рипа: Tracks+.CUE
Битрейт аудио: lossless
Продолжительность: CD1 - 00:57:21, CD2 - 00:59:58


    01. Juliana Pasha / It's All About You (Eurovision 2010 - Albania) [0:03:05.32]
    02. Eva Rivas / Apricot Stone (Eurovision 2010 - Armenia) [0:03:01.64]
    03. Safura / Drip Drop (Eurovision 2010 - Azerbaijan) [0:03:01.96]
    04. Vukasin Brajic / Thunder And Lightning (Eurovision 2010 - Bosnia & Herzegovina) [0:02:59.85]
    05. Tom Dice / Me And My Guitar (Eurovision 2010 - Belgium) [0:03:02.93]
    06. Miroslav (Miro) Kostadinov / Angel Si Ti (You Are An Angel) (Eurovision2010 - Bulgaria) [0:03:00.33]
    07. 3+2 / Butterflies (Eurovision 2010 - Belarus) [0:03:04.77]
    08. Michael von der Heide / Il Pleut De L'or (Eurovision 2010 - Switzerland) [0:03:01.22]
    09. Jon Lilygreen and The Islanders / Life Looks Better In Spring (Eurovision 2010 - Cyprus) [0:02:57.54]
    10. Lena / Satellite (Eurovision 2010 - Germany) [0:02:56.58]
    11. Chanйe & N'evergreen / In A Moment Like This (Eurovision 2010 - Denmark) [0:03:03.14]
    12. Malcolm Lincoln / Siren (Eurovision 2010 - Estonia) [0:02:56.46]
    13. Daniel Diges / Algo Pequeсito (Something Tiny) (Eurovision 2010 - Spain) [0:03:01.41]
    14. Kuunkuiskaajat / Tyцlki Ellдд (Eurovision 2010 - Finland) [0:03:03.86]
    15. Jessy Matador / Allez Olla Olй (Eurovision 2010 - France) [0:02:54.20]
    16. Josh Dubovie / That Sounds Good To Me (Eurovision 2010 - United Kingdom) [0:03:05.62]
    17. Sofia Nizharadze / Shine (Eurovision 2010 - Georgia) [0:03:01.38]
    18. Giorgos Alkaios & Friends / Opa (Eurovision 2010 - Greece) [0:03:02.24]
    19. Feminnem / Lako je Sve (Eurovision 2010 - Croatia) [0:03:00.10]
    01. Niamh Kavanagh / It's For You [0:03:00.22]
    02. Harel Skaat / Milim [0:03:01.58]
    03. Hera Bjцrk / Je ne sais quoi [0:03:03.94]
    04. InCulto / Eastern European Funk [0:02:40.26]
    05. Aisha / What For? [0:02:59.53]
    06. Sunstroke Project; Olia Tira / Run Away [0:02:59.94]
    07. Gjoko Taneski / Jas Ja Imam Silata [0:03:02.45]
    08. Thea Garrett / My Dream [0:03:02.86]
    09. Sieneke / Ik ben verliefd (Sha-La-Lie) [0:03:01.76]
    10. Didrik Solli-Tangen / My Heart Is Yours [0:03:07.30]
    11. Marcin Mrozinski / Legenda [0:02:55.70]
    12. Filipa Azevedo / Ha Dias Assim [0:02:57.50]
    13. Paula Seling; Ovi / Playing With Fire [0:03:02.12]
    14. Milan Stankovic / Ovo je Balkan [0:03:05.20]
    15. Peter Nalitch + Friends; Peter Nalitch / Lost And Forgotten [0:02:53.17]
    16. Anna Bergendahl / This Is My Life [0:03:01.86]
    17. Ansambel Zlindra; Kalamari / Narodnozabavni Rock [0:02:57.62]
    18. Kristina Pelakova / Horehronie [0:03:02.12]
    19. Manga / We Could Be The Same [0:03:03.09]
    20. Alyosha / Sweet People [0:03:00.61]
Exact Audio Copy V0.99 prebeta 5 from 4. May 2009

EAC extraction logfile from 30. May 2010, 23:08

Various / Eurovision Song Contest 2010 CD1

Used drive : TSSTcorpCDDVDW SH-S202J Adapter: 0 ID: 0

Read mode : Secure
Utilize accurate stream : Yes
Defeat audio cache : Yes
Make use of C2 pointers : No

Read offset correction : 6
Overread into Lead-In and Lead-Out : No
Fill up missing offset samples with silence : Yes
Delete leading and trailing silent blocks : No
Null samples used in CRC calculations : Yes
Used interface : Native Win32 interface for Win NT & 2000
Gap handling : Appended to previous track

Used output format : User Defined Encoder
Selected bitrate : 128 kBit/s
Quality : High
Add ID3 tag : No
Command line compressor : C:\Program Files\Exact Audio Copy\Flac\flac.exe
Additional command line options : -8 -V -T "ARTIST=%a" -T "TITLE=%t" -T "ALBUM=%g" -T "DATE=%y" -T "TRACKNUMBER=%n" -T "GENRE=%m" -T "COMMENT=EAC FLAC -8" %s

TOC of the extracted CD

Track | Start | Length | Start sector | End sector
---------------------------------------------------------
1 | 0:00.00 | 3:05.24 | 0 | 13898
2 | 3:05.24 | 3:01.48 | 13899 | 27521
3 | 6:06.72 | 3:01.72 | 27522 | 41168
4 | 9:08.69 | 2:59.64 | 41169 | 54657
5 | 12:08.58 | 3:02.70 | 54658 | 68377
6 | 15:11.53 | 3:00.25 | 68378 | 81902
7 | 18:12.03 | 3:04.58 | 81903 | 95760
8 | 21:16.61 | 3:01.17 | 95761 | 109352
9 | 24:18.03 | 2:57.41 | 109353 | 122668
10 | 27:15.44 | 2:56.44 | 122669 | 135912
11 | 30:12.13 | 3:03.11 | 135913 | 149648
12 | 33:15.24 | 2:56.35 | 149649 | 162883
13 | 36:11.59 | 3:01.31 | 162884 | 176489
14 | 39:13.15 | 3:03.65 | 176490 | 190279
15 | 42:17.05 | 2:54.15 | 190280 | 203344
16 | 45:11.20 | 3:05.47 | 203345 | 217266
17 | 48:16.67 | 3:01.29 | 217267 | 230870
18 | 51:18.21 | 3:02.18 | 230871 | 244538
19 | 54:20.39 | 3:00.08 | 244539 | 258046

Track 1

Filename D:\музыка на торент\Eurovision Song Contest 2010\Eurovision Song Contest 2010 CD1\01. Juliana Pasha – It's All About You (Eurovision 2010 - Albania).wav

Pre-gap length 0:00:02.00

Peak level 99.8 %
Track quality 100.0 %
Test CRC 656937AB
Copy CRC 656937AB
Track not present in AccurateRip database
Copy OK

Track 2

Filename D:\музыка на торент\Eurovision Song Contest 2010\Eurovision Song Contest 2010 CD1\02. Eva Rivas – Apricot Stone (Eurovision 2010 - Armenia).wav

Peak level 99.8 %
Track quality 99.9 %
Test CRC 42E69238
Copy CRC 42E69238
Track not present in AccurateRip database
Copy OK

Track 3

Filename D:\музыка на торент\Eurovision Song Contest 2010\Eurovision Song Contest 2010 CD1\03. Safura – Drip Drop (Eurovision 2010 - Azerbaijan).wav

Peak level 99.8 %
Track quality 99.9 %
Test CRC C6F5D98A
Copy CRC C6F5D98A
Track not present in AccurateRip database
Copy OK

Track 4

Filename D:\музыка на торент\Eurovision Song Contest 2010\Eurovision Song Contest 2010 CD1\04. Vukasin Brajic – Thunder And Lightning (Eurovision 2010 - Bosnia & Herzegovina).wav

Peak level 99.8 %
Track quality 100.0 %
Test CRC 5154B606
Copy CRC 5154B606
Track not present in AccurateRip database
Copy OK

Track 5

Filename D:\музыка на торент\Eurovision Song Contest 2010\Eurovision Song Contest 2010 CD1\05. Tom Dice – Me And My Guitar (Eurovision 2010 - Belgium).wav

Peak level 99.8 %
Track quality 99.9 %
Test CRC 884F3A04
Copy CRC 884F3A04
Track not present in AccurateRip database
Copy OK

Track 6

Filename D:\музыка на торент\Eurovision Song Contest 2010\Eurovision Song Contest 2010 CD1\06. Miroslav (Miro) Kostadinov – Angel Si Ti (You Are An Angel) (Eurovision2010 - Bulgaria).wav

Peak level 99.8 %
Track quality 99.9 %
Test CRC CC7F17A9
Copy CRC CC7F17A9
Track not present in AccurateRip database
Copy OK

Track 7

Filename D:\музыка на торент\Eurovision Song Contest 2010\Eurovision Song Contest 2010 CD1\07. 3+2 – Butterflies (Eurovision 2010 - Belarus).wav

Peak level 99.8 %
Track quality 100.0 %
Test CRC 02B80D64
Copy CRC 02B80D64
Track not present in AccurateRip database
Copy OK

Track 8

Filename D:\музыка на торент\Eurovision Song Contest 2010\Eurovision Song Contest 2010 CD1\08. Michael von der Heide – Il Pleut De L'or (Eurovision 2010 - Switzerland).wav

Peak level 99.8 %
Track quality 100.0 %
Test CRC 1A48B789
Copy CRC 1A48B789
Track not present in AccurateRip database
Copy OK

Track 9

Filename D:\музыка на торент\Eurovision Song Contest 2010\Eurovision Song Contest 2010 CD1\09. Jon Lilygreen and The Islanders – Life Looks Better In Spring (Eurovision 2010 - Cyprus).wav

Peak level 99.8 %
Track quality 100.0 %
Test CRC F2476DF9
Copy CRC F2476DF9
Track not present in AccurateRip database
Copy OK

Track 10

Filename D:\музыка на торент\Eurovision Song Contest 2010\Eurovision Song Contest 2010 CD1\10. Lena – Satellite (Eurovision 2010 - Germany).wav

Peak level 99.8 %
Track quality 100.0 %
Test CRC 6F758F35
Copy CRC 6F758F35
Track not present in AccurateRip database
Copy OK

Track 11

Filename D:\музыка на торент\Eurovision Song Contest 2010\Eurovision Song Contest 2010 CD1\11. Chanйe & N'evergreen – In A Moment Like This (Eurovision 2010 - Denmark).wav

Peak level 99.8 %
Track quality 100.0 %
Test CRC 64C330A0
Copy CRC 64C330A0
Track not present in AccurateRip database
Copy OK

Track 12

Filename D:\музыка на торент\Eurovision Song Contest 2010\Eurovision Song Contest 2010 CD1\12. Malcolm Lincoln – Siren (Eurovision 2010 - Estonia).wav

Peak level 99.8 %
Track quality 100.0 %
Test CRC 322CB76E
Copy CRC 322CB76E
Track not present in AccurateRip database
Copy OK

Track 13

Filename D:\музыка на торент\Eurovision Song Contest 2010\Eurovision Song Contest 2010 CD1\13. Daniel Diges – Algo Pequeсito (Something Tiny) (Eurovision 2010 - Spain).wav

Peak level 99.8 %
Track quality 100.0 %
Test CRC 8D26D3D6
Copy CRC 8D26D3D6
Track not present in AccurateRip database
Copy OK

Track 14

Filename D:\музыка на торент\Eurovision Song Contest 2010\Eurovision Song Contest 2010 CD1\14. Kuunkuiskaajat – Tyцlki Ellдд (Eurovision 2010 - Finland).wav

Peak level 99.8 %
Track quality 100.0 %
Test CRC 3532A348
Copy CRC 3532A348
Track not present in AccurateRip database
Copy OK

Track 15

Filename D:\музыка на торент\Eurovision Song Contest 2010\Eurovision Song Contest 2010 CD1\15. Jessy Matador – Allez Olla Olй (Eurovision 2010 - France).wav

Peak level 99.8 %
Track quality 100.0 %
Test CRC E7C7023D
Copy CRC E7C7023D
Track not present in AccurateRip database
Copy OK

Track 16

Filename D:\музыка на торент\Eurovision Song Contest 2010\Eurovision Song Contest 2010 CD1\16. Josh Dubovie – That Sounds Good To Me (Eurovision 2010 - United Kingdom).wav

Peak level 99.8 %
Track quality 99.9 %
Test CRC 30ECF9B3
Copy CRC 30ECF9B3
Track not present in AccurateRip database
Copy OK

Track 17

Filename D:\музыка на торент\Eurovision Song Contest 2010\Eurovision Song Contest 2010 CD1\17. Sofia Nizharadze – Shine (Eurovision 2010 - Georgia).wav

Peak level 99.8 %
Track quality 100.0 %
Test CRC 72AF0DFF
Copy CRC 72AF0DFF
Track not present in AccurateRip database
Copy OK

Track 18

Filename D:\музыка на торент\Eurovision Song Contest 2010\Eurovision Song Contest 2010 CD1\18. Giorgos Alkaios & Friends – Opa (Eurovision 2010 - Greece).wav

Peak level 99.8 %
Track quality 100.0 %
Test CRC 4803F8FA
Copy CRC 4803F8FA
Track not present in AccurateRip database
Copy OK

Track 19

Filename D:\музыка на торент\Eurovision Song Contest 2010\Eurovision Song Contest 2010 CD1\19. Feminnem – Lako je Sve (Eurovision 2010 - Croatia).wav

Peak level 99.8 %
Track quality 100.0 %
Test CRC F4C10F41
Copy CRC F4C10F41
Track not present in AccurateRip database
Copy OK

None of the tracks are present in the AccurateRip database

No errors occurred

End of status report
Exact Audio Copy V0.99 prebeta 5 from 4. May 2009

EAC extraction logfile from 30. May 2010, 23:37

Various / Eurovision Song Contest 2010 - CD 2

Used drive : TSSTcorpCDDVDW SH-S202J Adapter: 0 ID: 0

Read mode : Secure
Utilize accurate stream : Yes
Defeat audio cache : Yes
Make use of C2 pointers : No

Read offset correction : 6
Overread into Lead-In and Lead-Out : No
Fill up missing offset samples with silence : Yes
Delete leading and trailing silent blocks : No
Null samples used in CRC calculations : Yes
Used interface : Native Win32 interface for Win NT & 2000
Gap handling : Appended to previous track

Used output format : User Defined Encoder
Selected bitrate : 128 kBit/s
Quality : High
Add ID3 tag : No
Command line compressor : C:\Program Files\Exact Audio Copy\Flac\flac.exe
Additional command line options : -8 -V -T "ARTIST=%a" -T "TITLE=%t" -T "ALBUM=%g" -T "DATE=%y" -T "TRACKNUMBER=%n" -T "GENRE=%m" -T "COMMENT=EAC FLAC -8" %s

TOC of the extracted CD

Track | Start | Length | Start sector | End sector
---------------------------------------------------------
1 | 0:00.00 | 3:00.17 | 0 | 13516
2 | 3:00.17 | 3:01.44 | 13517 | 27135
3 | 6:01.61 | 3:03.71 | 27136 | 40931
4 | 9:05.57 | 2:40.20 | 40932 | 52951
5 | 11:46.02 | 2:59.40 | 52952 | 66416
6 | 14:45.42 | 2:59.71 | 66417 | 79912
7 | 17:45.38 | 3:02.34 | 79913 | 93596
8 | 20:47.72 | 3:02.65 | 93597 | 107311
9 | 23:50.62 | 3:01.57 | 107312 | 120943
10 | 26:52.44 | 3:07.23 | 120944 | 134991
11 | 29:59.67 | 2:55.53 | 134992 | 148169
12 | 32:55.45 | 2:57.38 | 148170 | 161482
13 | 35:53.08 | 3:02.09 | 161483 | 175141
14 | 38:55.17 | 3:05.15 | 175142 | 189031
15 | 42:00.32 | 2:53.13 | 189032 | 202019
16 | 44:53.45 | 3:01.65 | 202020 | 215659
17 | 47:55.35 | 2:57.47 | 215660 | 228981
18 | 50:53.07 | 3:02.09 | 228982 | 242640
19 | 53:55.16 | 3:03.07 | 242641 | 256372
20 | 56:58.23 | 3:00.46 | 256373 | 269918

Track 1

Filename D:\музыка на торент\Eurovision Song Contest 2010\Eurovision Song Contest 2010 - CD 2\01. Niamh Kavanagh – It's For You.wav

Pre-gap length 0:00:02.00

Peak level 99.8 %
Track quality 100.0 %
Test CRC 1DB46F52
Copy CRC 1DB46F52
Track not present in AccurateRip database
Copy OK

Track 2

Filename D:\музыка на торент\Eurovision Song Contest 2010\Eurovision Song Contest 2010 - CD 2\02. Harel Skaat – Milim.wav

Peak level 99.8 %
Track quality 100.0 %
Test CRC 62DA2347
Copy CRC 62DA2347
Track not present in AccurateRip database
Copy OK

Track 3

Filename D:\музыка на торент\Eurovision Song Contest 2010\Eurovision Song Contest 2010 - CD 2\03. Hera Bjцrk – Je ne sais quoi.wav

Peak level 99.8 %
Track quality 99.9 %
Test CRC 697B2D9B
Copy CRC 697B2D9B
Track not present in AccurateRip database
Copy OK

Track 4

Filename D:\музыка на торент\Eurovision Song Contest 2010\Eurovision Song Contest 2010 - CD 2\04. InCulto – Eastern European Funk.wav

Peak level 99.8 %
Track quality 100.0 %
Test CRC 52423473
Copy CRC 52423473
Track not present in AccurateRip database
Copy OK

Track 5

Filename D:\музыка на торент\Eurovision Song Contest 2010\Eurovision Song Contest 2010 - CD 2\05. Aisha – What For .wav

Peak level 99.8 %
Track quality 100.0 %
Test CRC 5C5B5A99
Copy CRC 5C5B5A99
Track not present in AccurateRip database
Copy OK

Track 6

Filename D:\музыка на торент\Eurovision Song Contest 2010\Eurovision Song Contest 2010 - CD 2\06. Sunstroke Project; Olia Tira – Run Away.wav

Peak level 99.8 %
Track quality 100.0 %
Test CRC 32EA6B45
Copy CRC 32EA6B45
Track not present in AccurateRip database
Copy OK

Track 7

Filename D:\музыка на торент\Eurovision Song Contest 2010\Eurovision Song Contest 2010 - CD 2\07. Gjoko Taneski – Jas Ja Imam Silata.wav

Peak level 99.8 %
Track quality 100.0 %
Test CRC F8BDAD0A
Copy CRC F8BDAD0A
Track not present in AccurateRip database
Copy OK

Track 8

Filename D:\музыка на торент\Eurovision Song Contest 2010\Eurovision Song Contest 2010 - CD 2\08. Thea Garrett – My Dream.wav

Peak level 99.8 %
Track quality 100.0 %
Test CRC B499F9BB
Copy CRC B499F9BB
Track not present in AccurateRip database
Copy OK

Track 9

Filename D:\музыка на торент\Eurovision Song Contest 2010\Eurovision Song Contest 2010 - CD 2\09. Sieneke – Ik ben verliefd (Sha-La-Lie).wav

Peak level 99.8 %
Track quality 100.0 %
Test CRC 7743B41E
Copy CRC 7743B41E
Track not present in AccurateRip database
Copy OK

Track 10

Filename D:\музыка на торент\Eurovision Song Contest 2010\Eurovision Song Contest 2010 - CD 2\10. Didrik Solli-Tangen – My Heart Is Yours.wav

Peak level 99.8 %
Track quality 99.9 %
Test CRC DCA4C479
Copy CRC DCA4C479
Track not present in AccurateRip database
Copy OK

Track 11

Filename D:\музыка на торент\Eurovision Song Contest 2010\Eurovision Song Contest 2010 - CD 2\11. Marcin Mrozinski – Legenda.wav

Peak level 99.8 %
Track quality 100.0 %
Test CRC B07E1E9D
Copy CRC B07E1E9D
Track not present in AccurateRip database
Copy OK

Track 12

Filename D:\музыка на торент\Eurovision Song Contest 2010\Eurovision Song Contest 2010 - CD 2\12. Filipa Azevedo – Ha Dias Assim.wav

Peak level 99.8 %
Track quality 100.0 %
Test CRC B64BCF2F
Copy CRC B64BCF2F
Track not present in AccurateRip database
Copy OK

Track 13

Filename D:\музыка на торент\Eurovision Song Contest 2010\Eurovision Song Contest 2010 - CD 2\13. Paula Seling; Ovi – Playing With Fire.wav

Peak level 99.8 %
Track quality 100.0 %
Test CRC EFB80A57
Copy CRC EFB80A57
Track not present in AccurateRip database
Copy OK

Track 14

Filename D:\музыка на торент\Eurovision Song Contest 2010\Eurovision Song Contest 2010 - CD 2\14. Milan Stankovic – Ovo je Balkan.wav

Peak level 99.8 %
Track quality 100.0 %
Test CRC 32306E02
Copy CRC 32306E02
Track not present in AccurateRip database
Copy OK

Track 15

Filename D:\музыка на торент\Eurovision Song Contest 2010\Eurovision Song Contest 2010 - CD 2\15. Peter Nalitch + Friends; Peter Nalitch – Lost And Forgotten.wav

Peak level 99.8 %
Track quality 100.0 %
Test CRC DEF0FF95
Copy CRC DEF0FF95
Track not present in AccurateRip database
Copy OK

Track 16

Filename D:\музыка на торент\Eurovision Song Contest 2010\Eurovision Song Contest 2010 - CD 2\16. Anna Bergendahl – This Is My Life.wav

Peak level 99.8 %
Track quality 100.0 %
Test CRC 219401E5
Copy CRC 219401E5
Track not present in AccurateRip database
Copy OK

Track 17

Filename D:\музыка на торент\Eurovision Song Contest 2010\Eurovision Song Contest 2010 - CD 2\17. Ansambel Zlindra; Kalamari – Narodnozabavni Rock.wav

Peak level 99.8 %
Track quality 99.9 %
Test CRC 73519073
Copy CRC 73519073
Track not present in AccurateRip database
Copy OK

Track 18

Filename D:\музыка на торент\Eurovision Song Contest 2010\Eurovision Song Contest 2010 - CD 2\18. Kristina Pelakova – Horehronie.wav

Peak level 99.8 %
Track quality 100.0 %
Test CRC 45E582E3
Copy CRC 45E582E3
Track not present in AccurateRip database
Copy OK

Track 19

Filename D:\музыка на торент\Eurovision Song Contest 2010\Eurovision Song Contest 2010 - CD 2\19. Manga – We Could Be The Same.wav

Peak level 99.8 %
Track quality 100.0 %
Test CRC 79827565
Copy CRC 79827565
Track not present in AccurateRip database
Copy OK

Track 20

Filename D:\музыка на торент\Eurovision Song Contest 2010\Eurovision Song Contest 2010 - CD 2\20. Alyosha – Sweet People.wav

Peak level 99.8 %
Track quality 100.0 %
Test CRC DE611045
Copy CRC DE611045
Track not present in AccurateRip database
Copy OK

None of the tracks are present in the AccurateRip database

No errors occurred

End of status report

Релиз группы:

Этот торрент недоступен для скачивания без регистрации, однако доступен по публичной magnet-ссылке (источники с публичных трекеров). Перед использованием ссылки прочтите, пожалуйста Пользовательское соглашение, а также как можно дольше оставайтесь на раздаче! Для того, чтобы скачать сам торрент-файл (который видит больше источников), а также для того, чтобы поблагодарить релизера, вам необходимо зарегистрироваться. Если регистрироваться лень - вы можете также попробовать скачать релиз по нашим партнерским ссылкам ниже.

[underverse.su].t10403.torrent
Трекер: Зарегистрирован   [ 30.05.2010 20:31 ]  

Статус: проверено (by Bratok at 30.05.2010 20:37)
Поблагодарили: 1 человек
Тип торрента: публичный - доступные источники с открытых трекеров: 
Размер: 814 MB (занимает 0,18 DVDR, для записи нужно 1 болванка DVDR/RW)
 
 
Похожие темы
Форум Тема Автор Торрент Отв. Посл. сооб.
Сборники Pop, Disco, Dance (Pop) VA - Ураган хитов (2009) [MP3, 128 kbps] БогDan
0 | 0

1 | 2322

22

02.07.2009 19:05

Сборники Pop, Disco, Dance (Pop) VA - Авторадио дискотека - 80х (2007) [MP3,128 kbps] Алексей 25
3 | 0

2 | 2483

55

07.02.2014 19:10

Сборники Pop, Disco, Dance (Pop) VA - Все новинки этого года (2011) [MP3, 256 kbps] МУХА~
0 | 0

0 | 1159

11

23.02.2011 18:18

Сборники Pop, Disco, Dance (Pop) VA - Eurovision Song Contest Dusseldorf 2011 (2 CD) (2011) [MP3, CBR 192 kbps] ZondeR
0 | 0

1 | 880

3

19.09.2011 13:33

Сборники Pop, Disco, Dance (Pop) VA - Супер ДискотЭка 90-х from AGR (2011) [MP3, 320 kbps] Dark6120
0 | 0

1 | 1211

20

19.09.2011 12:15

Сборники Pop, Disco, Dance (Pop) VA - Лучшая 100-ка Ретро-FM: Золотые хиты 80-х 50/50 (2011) [MP3, 256 kbps] 90ytr90
9 | 0

0 | 1587

75

12.12.2012 14:58

Сборники Pop, Disco, Dance (Pop) VA - Лучшая русская 100-ка Super новинок 15 (2012) [MP3, 256 kbps] 90ytr90
0 | 0

0 | 1206

21

12.12.2012 15:46

Сборники Pop, Disco, Dance (Pop) VA - Новое и лучшее: Топ сборник 3 (2012) [MP3, 256 kbps] 90ytr90
0 | 0

0 | 1185

20

12.12.2012 16:16

Сборники Pop, Disco, Dance (Pop) VA - Зимний Хит (2012) [MP3, 256 kbps] 90ytr90
0 | 0

1 | 1545

19

16.12.2012 11:57

Сборники Pop, Disco, Dance (Pop) VA - Зимняя дискотека в стиле ретро (2012) [MP3, 256 kbps] 90ytr90
2 | 0

0 | 1892

43

16.12.2012 10:28



Последний раз редактировалось: Bratok (30.05.2010 21:36), всего редактировалось 2 раз(а)

Bratok Пол:Муж

30-Май-2010 21:34


Яндекс.Метрика powered by Sphinx


В Н И М А Н И Е
Сайт не распространяет и не хранит электронные версии произведений, а лишь бесплатно и без коммерческой выгоды (не требуя взамен платы,
SMS и т.д.) предоставляет доступ к создаваемому пользователями каталогу ссылок на торрент-файлы, которые содержат только списки хеш-сумм.
Убедительная просьба с жалобами обращаться напрямую к пользователю, разместившему торрент файл.

Вверх