Loading...
Error

(House) David Vendetta - Rendez-Vous (Deluxe Edition 2CD) (2008) [FLAC (Tracks+.CUE), lossless]

Статистика раздачи
Размер:  1,03 GB   |    Зарегистрирован:  7 лет 11 месяцев   |    Скачан:  6 раз

Полного источника не было: 16 дней

Сидов:  0  |  0 KB/s  ]   Личеров:  0  |  0 KB/s  ]

* - сиды/пиры с внешних источников

   
 
Автор Сообщение

Bratok Пол:Муж

29-Май-2010 10:26

David Vendetta - Rendez-Vous (Deluxe Edition 2CD)
Жанр: House
Год выпуска: 2008
Аудиокодек: FLAC
Тип рипа: Tracks+.CUE
Битрейт аудио: lossless
Продолжительность: CD1 - 01:13:25, CD2 - 01:17:30

Давид Вендетта (фр. David Vendetta ), настоящее имя — Давид Папаруссо (фр. David Paparusso) — знаменитый французский диджей и продюсер.

Давид Вендетта родился 25 августа 1968 года в городке Лонгви во Франции. Его мать одна воспитывала восьмерых детей. С детства Давиду нравились ударные. В возрасте 12 лет он собственноручно собрал себе установку из того, что было под рукой, и стал заниматься музыкой. Спустя какое-то время он стал увлекаться электронной музыкой. На то время его любимыми исполнителями были Depeche Mode и Жан Мишель Жарр. Приехав в Париж, он стал играть в одном из многочисленных ночных клубов столицы. В 2006 году он выпускает хит «Love To Love You Baby», в котором он использовал великолепный вокал Донны Саммер. Именно эта композиция сделала его популярным и вывела на международную арену. Вслед за успехом его треков «Love To Love You Baby» и «Unidos Para La Musica», Давид покорил публику своим первым альбомом «Rendez Vous», выпущенным в 2007 году. Специально для создания своего первого альбома Давид Вендетта сотрудничал с популярными исполнителями: Акрам (Akram) — «Unidos Para La Musica» и «I Call You Back», Барбара Такер (Barbara Tucker) — «Anticipation», Кейт Томпсон (Keith Thompson) — «Break 4 Love», Дэвид Гонсалвез (David Goncalvez) — «Freaky Girl», Рэйчел Старр (Rachael Starr) — «Bleeding Heart», Эдрю Валорзи (Audrey Valorzi) — «Be The Best».

Теперь у Давида есть всё, о чем можно только мечтать — своя вечеринка «Cosa Nostra», которая проходит дважды в месяц в Mix Club в Париже; популярное радиошоу, которое транслируется сразу на двух радиостанциях — FunRadio и Radio FG. В 2007 году Дэвид также получил награду «NRJ Music Awards 2007» как лучший французский диджей.

В апреле 2010 года он вернулся со своим вторым альбомом Vendetta. Диск включает в себя сотрудничество с такими артистами, как Хайфа Вебе, Тара Макдональд, Линда Хопкинс, Брайн Лукас, Алим Гасымов и Питер Стромаре.
01. Unidos Para La Musica (Cosa Nostra Mix) (Feat. Akram) [0:03:52.50]
02. Break 4 Love (Vs Keith Thompson) [0:04:01.88]
03. Love To Love You Baby [0:03:27.37]
04. Be The Best (Feat. Audrey Valorzi) [0:06:37.49]
05. Bleeding Heart (Feat. Rachael Star) [0:06:15.00]
06. Take Me Higher (Feat. Akram) [0:06:30.00]
07. Rendez Vous [0:05:16.86]
08. Freaky Girls (Feat. David Goncalves) [0:05:56.25]
09. Feelings [0:07:31.88]
10. Anticipation (With Barbara Tucker) [0:07:00.00]
11. Fere [0:03:54.89]
12. I Call You Back (Feat. Akram) [0:03:03.30]
13. Love To Love You Baby (Lounge Mix) [0:02:43.68]
14. Unidos Para La Musica (Flamenco Mix) (Feat. Akram) [0:07:14.40]
01. Hold That Sucker Down (Vocal Mix) [0:05:52.29]
02. Take Me Higher (feat. Akram) (David Vendetta Cosa Nostra Vocal Mix) [0:08:56.96]
03. Freaky Girl (feat. David Goncalves) (Chris Count & Dubster Remix) [0:07:38.92]
04. Feelings (with Jordane G feat. Jama & Anna Adam) (From Russia With Love Mix) [0:08:56.29]
05. Bleeding Heart (feat. Rachael Starr) (Balazko Remix) [0:07:11.89]
06. Bleeding Heart (feat. Rachael Starr) (David Vendetta Cosa Nostra Mix) [0:08:41.97]
07. Unidos Para La Musica (feat. Akram) (Main Mix) [0:08:11.54]
08. Unidos Para La Musica (feat. Akram) (Laurent Wolf Remix) [0:06:41.50]
09. Break 4 Love (vs. Keith Thompson) (Soulful Mix) [0:06:46.73]
10. Break 4 Love (vs. Keith Thompson) (Ben Macklin Remix) [0:08:32.20]
Exact Audio Copy V0.99 prebeta 5 from 4. May 2009

EAC extraction logfile from 29. May 2010, 13:13

David Vendetta / Rendez Vous

Used drive : TSSTcorpCDDVDW SH-S202J Adapter: 0 ID: 0

Read mode : Secure
Utilize accurate stream : Yes
Defeat audio cache : Yes
Make use of C2 pointers : No

Read offset correction : 6
Overread into Lead-In and Lead-Out : No
Fill up missing offset samples with silence : Yes
Delete leading and trailing silent blocks : No
Null samples used in CRC calculations : Yes
Used interface : Native Win32 interface for Win NT & 2000
Gap handling : Appended to previous track

Used output format : User Defined Encoder
Selected bitrate : 128 kBit/s
Quality : High
Add ID3 tag : No
Command line compressor : C:\Program Files\Exact Audio Copy\Flac\flac.exe
Additional command line options : -8 -V -T "ARTIST=%a" -T "TITLE=%t" -T "ALBUM=%g" -T "DATE=%y" -T "TRACKNUMBER=%n" -T "GENRE=%m" -T "COMMENT=EAC FLAC -8" %s

TOC of the extracted CD

Track | Start | Length | Start sector | End sector
---------------------------------------------------------
1 | 0:00.00 | 3:52.38 | 0 | 17437
2 | 3:52.38 | 4:01.66 | 17438 | 35578
3 | 7:54.29 | 3:27.28 | 35579 | 51131
4 | 11:21.57 | 6:37.37 | 51132 | 80943
5 | 17:59.19 | 6:15.00 | 80944 | 109068
6 | 24:14.19 | 6:30.00 | 109069 | 138318
7 | 30:44.19 | 5:16.65 | 138319 | 162083
8 | 36:01.09 | 5:56.19 | 162084 | 188802
9 | 41:57.28 | 7:31.66 | 188803 | 222693
10 | 49:29.19 | 7:00.00 | 222694 | 254193
11 | 56:29.19 | 3:54.67 | 254194 | 271810
12 | 60:24.11 | 3:03.23 | 271811 | 285558
13 | 63:27.34 | 2:43.51 | 285559 | 297834
14 | 66:11.10 | 7:14.30 | 297835 | 330414

Track 1

Filename D:\музыка на торент\David Vendetta Rendez Vous\CD1\01. David Vendetta – Unidos Para La Musica (Cosa Nostra Mix) (Feat. Akram).wav

Pre-gap length 0:00:02.00

Peak level 99.8 %
Track quality 100.0 %
Test CRC 1451780D
Copy CRC 1451780D
Cannot be verified as accurate (confidence 1) [E6A97C4E], AccurateRip returned [EA9E2F81]
Copy OK

Track 2

Filename D:\музыка на торент\David Vendetta Rendez Vous\CD1\02. David Vendetta – Break 4 Love (Vs Keith Thompson).wav

Peak level 99.8 %
Track quality 100.0 %
Test CRC B265FA1A
Copy CRC B265FA1A
Cannot be verified as accurate (confidence 1) [9DF502C5], AccurateRip returned [BD3E57CD]
Copy OK

Track 3

Filename D:\музыка на торент\David Vendetta Rendez Vous\CD1\03. David Vendetta – Love To Love You Baby.wav

Peak level 99.8 %
Track quality 100.0 %
Test CRC 34A5970C
Copy CRC 34A5970C
Cannot be verified as accurate (confidence 1) [3CBCC64B], AccurateRip returned [35C0D840]
Copy OK

Track 4

Filename D:\музыка на торент\David Vendetta Rendez Vous\CD1\04. David Vendetta – Be The Best (Feat. Audrey Valorzi).wav

Peak level 99.8 %
Track quality 99.9 %
Test CRC F9F02511
Copy CRC F9F02511
Cannot be verified as accurate (confidence 1) [39B3C112], AccurateRip returned [8186E17E]
Copy OK

Track 5

Filename D:\музыка на торент\David Vendetta Rendez Vous\CD1\05. David Vendetta – Bleeding Heart (Feat. Rachael Star).wav

Peak level 99.8 %
Track quality 100.0 %
Test CRC 4FED9116
Copy CRC 4FED9116
Cannot be verified as accurate (confidence 1) [0208C95C], AccurateRip returned [13DE9608]
Copy OK

Track 6

Filename D:\музыка на торент\David Vendetta Rendez Vous\CD1\06. David Vendetta – Take Me Higher (Feat. Akram).wav

Peak level 99.8 %
Track quality 100.0 %
Test CRC 7FDDFDF3
Copy CRC 7FDDFDF3
Cannot be verified as accurate (confidence 1) [A29A587A], AccurateRip returned [2968F5FA]
Copy OK

Track 7

Filename D:\музыка на торент\David Vendetta Rendez Vous\CD1\07. David Vendetta – Rendez Vous.wav

Peak level 99.8 %
Track quality 100.0 %
Test CRC FDF60BC1
Copy CRC FDF60BC1
Cannot be verified as accurate (confidence 1) [086F8B1C], AccurateRip returned [17AA6C97]
Copy OK

Track 8

Filename D:\музыка на торент\David Vendetta Rendez Vous\CD1\08. David Vendetta – Freaky Girls (Feat. David Goncalves).wav

Peak level 99.8 %
Track quality 100.0 %
Test CRC F5FB793C
Copy CRC F5FB793C
Cannot be verified as accurate (confidence 1) [79C40AA1], AccurateRip returned [F7F8AB43]
Copy OK

Track 9

Filename D:\музыка на торент\David Vendetta Rendez Vous\CD1\09. David Vendetta – Feelings.wav

Peak level 99.8 %
Track quality 100.0 %
Test CRC D12502C5
Copy CRC D12502C5
Cannot be verified as accurate (confidence 1) [38C661D4], AccurateRip returned [F343272C]
Copy OK

Track 10

Filename D:\музыка на торент\David Vendetta Rendez Vous\CD1\10. David Vendetta – Anticipation (With Barbara Tucker).wav

Peak level 99.8 %
Track quality 100.0 %
Test CRC D0B5A965
Copy CRC D0B5A965
Cannot be verified as accurate (confidence 1) [5FB7F752], AccurateRip returned [F0822370]
Copy OK

Track 11

Filename D:\музыка на торент\David Vendetta Rendez Vous\CD1\11. David Vendetta – Fere.wav

Peak level 99.8 %
Track quality 100.0 %
Test CRC 38CF6AA8
Copy CRC 38CF6AA8
Cannot be verified as accurate (confidence 1) [E114E78E], AccurateRip returned [0457AC23]
Copy OK

Track 12

Filename D:\музыка на торент\David Vendetta Rendez Vous\CD1\12. David Vendetta – I Call You Back (Feat. Akram).wav

Peak level 99.8 %
Track quality 99.9 %
Test CRC 3A0C67C5
Copy CRC 3A0C67C5
Cannot be verified as accurate (confidence 1) [1B8F0A84], AccurateRip returned [857F2E69]
Copy OK

Track 13

Filename D:\музыка на торент\David Vendetta Rendez Vous\CD1\13. David Vendetta – Love To Love You Baby (Lounge Mix).wav

Peak level 99.8 %
Track quality 99.9 %
Test CRC 61DA9248
Copy CRC 61DA9248
Cannot be verified as accurate (confidence 1) [A616357A], AccurateRip returned [A9D4A1B6]
Copy OK

Track 14

Filename D:\музыка на торент\David Vendetta Rendez Vous\CD1\14. David Vendetta – Unidos Para La Musica (Flamenco Mix) (Feat. Akram).wav

Peak level 99.8 %
Track quality 100.0 %
Test CRC 11C4B9B9
Copy CRC 11C4B9B9
Cannot be verified as accurate (confidence 1) [ED25EB0B], AccurateRip returned [2622254A]
Copy OK

No tracks could be verified as accurate
You may have a different pressing from the one(s) in the database

No errors occurred

End of status report
Exact Audio Copy V0.99 prebeta 5 from 4. May 2009

EAC extraction logfile from 29. May 2010, 14:13

David Vendetta / Rendez-Vous (Edition Collector) (CD2)

Used drive : TSSTcorpCDDVDW SH-S202J Adapter: 0 ID: 0

Read mode : Secure
Utilize accurate stream : Yes
Defeat audio cache : Yes
Make use of C2 pointers : No

Read offset correction : 6
Overread into Lead-In and Lead-Out : No
Fill up missing offset samples with silence : Yes
Delete leading and trailing silent blocks : No
Null samples used in CRC calculations : Yes
Used interface : Native Win32 interface for Win NT & 2000
Gap handling : Appended to previous track

Used output format : User Defined Encoder
Selected bitrate : 128 kBit/s
Quality : High
Add ID3 tag : No
Command line compressor : C:\Program Files\Exact Audio Copy\Flac\flac.exe
Additional command line options : -8 -V -T "ARTIST=%a" -T "TITLE=%t" -T "ALBUM=%g" -T "DATE=%y" -T "TRACKNUMBER=%n" -T "GENRE=%m" -T "COMMENT=EAC FLAC -8" %s

TOC of the extracted CD

Track | Start | Length | Start sector | End sector
---------------------------------------------------------
1 | 0:00.00 | 5:52.22 | 0 | 26421
2 | 5:52.22 | 8:56.72 | 26422 | 66693
3 | 14:49.19 | 7:38.69 | 66694 | 101112
4 | 22:28.13 | 8:56.22 | 101113 | 141334
5 | 31:24.35 | 7:11.67 | 141335 | 173726
6 | 38:36.27 | 8:41.73 | 173727 | 212874
7 | 47:18.25 | 8:11.41 | 212875 | 249740
8 | 55:29.66 | 6:41.38 | 249741 | 279853
9 | 62:11.29 | 6:46.55 | 279854 | 310358
10 | 68:58.09 | 8:32.15 | 310359 | 348773

Track 1

Filename D:\музыка на торент\David Vendetta Rendez Vous\CD2\01. David Vendetta – Hold That Sucker Down (Vocal Mix).wav

Pre-gap length 0:00:02.00

Peak level 98.8 %
Track quality 99.9 %
Test CRC B6006539
Copy CRC B6006539
Track not present in AccurateRip database
Copy OK

Track 2

Filename D:\музыка на торент\David Vendetta Rendez Vous\CD2\02. David Vendetta – Take Me Higher (feat. Akram) (David Vendetta Cosa Nostra Vocal Mix).wav

Pre-gap length 0:00:02.00

Peak level 98.8 %
Track quality 99.9 %
Test CRC EB42D89F
Copy CRC EB42D89F
Track not present in AccurateRip database
Copy OK

Track 3

Filename D:\музыка на торент\David Vendetta Rendez Vous\CD2\03. David Vendetta – Freaky Girl (feat. David Goncalves) (Chris Count & Dubster Remix).wav

Pre-gap length 0:00:02.00

Peak level 98.8 %
Track quality 99.9 %
Test CRC D78E6788
Copy CRC D78E6788
Track not present in AccurateRip database
Copy OK

Track 4

Filename D:\музыка на торент\David Vendetta Rendez Vous\CD2\04. David Vendetta – Feelings (with Jordane G feat. Jama & Anna Adam) (From Russia With Love Mix).wav

Pre-gap length 0:00:02.00

Peak level 98.8 %
Track quality 99.9 %
Test CRC D760C47A
Copy CRC D760C47A
Track not present in AccurateRip database
Copy OK

Track 5

Filename D:\музыка на торент\David Vendetta Rendez Vous\CD2\05. David Vendetta – Bleeding Heart (feat. Rachael Starr) (Balazko Remix).wav

Pre-gap length 0:00:02.00

Peak level 98.8 %
Track quality 100.0 %
Test CRC C8B26478
Copy CRC C8B26478
Track not present in AccurateRip database
Copy OK

Track 6

Filename D:\музыка на торент\David Vendetta Rendez Vous\CD2\06. David Vendetta – Bleeding Heart (feat. Rachael Starr) (David Vendetta Cosa Nostra Mix).wav

Pre-gap length 0:00:02.00

Peak level 98.8 %
Track quality 100.0 %
Test CRC B0074ECF
Copy CRC B0074ECF
Track not present in AccurateRip database
Copy OK

Track 7

Filename D:\музыка на торент\David Vendetta Rendez Vous\CD2\07. David Vendetta – Unidos Para La Musica (feat. Akram) (Main Mix).wav

Pre-gap length 0:00:02.00

Peak level 98.8 %
Track quality 100.0 %
Test CRC 9A800B5C
Copy CRC 9A800B5C
Track not present in AccurateRip database
Copy OK

Track 8

Filename D:\музыка на торент\David Vendetta Rendez Vous\CD2\08. David Vendetta – Unidos Para La Musica (feat. Akram) (Laurent Wolf Remix).wav

Pre-gap length 0:00:02.00

Peak level 98.8 %
Track quality 100.0 %
Test CRC 7A093DDD
Copy CRC 7A093DDD
Track not present in AccurateRip database
Copy OK

Track 9

Filename D:\музыка на торент\David Vendetta Rendez Vous\CD2\09. David Vendetta – Break 4 Love (vs. Keith Thompson) (Soulful Mix).wav

Pre-gap length 0:00:02.00

Peak level 98.8 %
Track quality 100.0 %
Test CRC 59185C63
Copy CRC 59185C63
Track not present in AccurateRip database
Copy OK

Track 10

Filename D:\музыка на торент\David Vendetta Rendez Vous\CD2\10. David Vendetta – Break 4 Love (vs. Keith Thompson) (Ben Macklin Remix).wav

Pre-gap length 0:00:02.00

Peak level 98.8 %
Track quality 100.0 %
Test CRC CEA09336
Copy CRC CEA09336
Track not present in AccurateRip database
Copy OK

None of the tracks are present in the AccurateRip database

No errors occurred

End of status report

Релиз группы:

Этот торрент недоступен для скачивания без регистрации, однако доступен по публичной magnet-ссылке (источники с публичных трекеров). Перед использованием ссылки прочтите, пожалуйста Пользовательское соглашение, а также как можно дольше оставайтесь на раздаче! Для того, чтобы скачать сам торрент-файл (который видит больше источников), а также для того, чтобы поблагодарить релизера, вам необходимо зарегистрироваться. Если регистрироваться лень - вы можете также попробовать скачать релиз по нашим партнерским ссылкам ниже. Кроме того, зарегистрированным пользователям не показывается всплывающая реклама при скачивании.

[underverse.su].t10372.torrent
Трекер: Зарегистрирован   [ 29.05.2010 10:33 ]  

Статус: проверено (by Bratok at 29.05.2010 10:34)
Поблагодарили: 4 человека
Тип торрента: публичный - доступные источники с открытых трекеров: 
Размер: 1,03 GB (занимает 0,24 DVDR, для записи нужно 1 болванка DVDR/RW)
 
 
Похожие темы
Форум Тема Автор Торрент Отв. Посл. сооб.
House (House) Dave DK - Val Maira Remixe (EP) (2016) [MP3, 320 kbps] ANDRAKO
2 | 0

0 | 324

2

07.12.2016 14:41

House (Lossless) (House) Daft Punk - Get Lucky (CD Single) (2013) [FLAC (Image+.CUE), Lossless] Бишеп
13 | 0

0 | 2262

11

31.10.2013 08:28

House (Lossless) (House) Dada Life - The Rules Of Dada (Extended Versions) (2012) [FLAC (Tracks), Lossless] (Web) Бишеп
0 | 0

0 | 750

1

03.02.2015 20:00

* Архив (электронная музыка) (House) David Vendetta - Rendez-Vous (Deluxe Edition 2CD) (2008) [MP3, 320 kbps] Bratok

2 | 1963

30.08.2010 01:30

Архив (электронная музыка) (House) Dance Night Mission 2011 (2011) [MP3, 320 kbps] PainKiler
0 | 0

1 | 1287

4

31.01.2018 20:18



Последний раз редактировалось: Bratok (29.05.2010 12:21), всего редактировалось 1 раз

Bratok Пол:Муж

29-Май-2010 10:46

Лучший альбом! :good:

badprizrac Пол:Муж

02-Янв-2013 15:45

а раздача еще будет?

infodba Пол:Муж

17-Янв-2013 14:30

Обратите внимание, что полного источника не было почти год...
РАЗДАЧА МЁРТВАЯ

garry Пол:Муж

17-Янв-2013 15:17

infodba
спасибо за информацию.

17-Янв-2013 15:17

Топик был перенесен из форума House (Lossless) в форум Архив


gari
 

infodba Пол:Муж

22-Янв-2013 10:52

gari
пожалуйста... :boast:

Bratok Пол:Муж

25-Мар-2013 18:37

Верните обратно раздачу!

25-Мар-2013 18:39

Топик был перенесен из форума Архив в форум House (Lossless)


dj_maxx
 

31-Янв-2018 21:14

Топик был перенесен из форума House (Lossless) в форум Архив (HQ электронная музыка)


[cron robot]
 

Яндекс.Метрика powered by Sphinx


В Н И М А Н И Е
Сайт не распространяет и не хранит электронные версии произведений, а лишь бесплатно и без коммерческой выгоды (не требуя взамен платы,
SMS и т.д.) предоставляет доступ к создаваемому пользователями каталогу ссылок на торрент-файлы, которые содержат только списки хеш-сумм.
Убедительная просьба с жалобами обращаться напрямую к пользователю, разместившему торрент файл.

Вверх