Loading...
Error

(R&B/Soul) Timbaland - Presents Shock Value (2007) [FLAC (Tracks+.CUE), lossless]

Статистика раздачи
Размер:  459 MB   |    Зарегистрирован:  7 лет 5 месяцев   |    Скачан:  9 раз

Полного источника не было: 11 месяцев

Сидов:  0  |  0 KB/s  ]   Личеров:  0  |  0 KB/s  ]

* - сиды/пиры с внешних источников

   
 
Автор Сообщение

Bratok Пол:Муж

23-Май-2010 19:15

Timbaland - Presents Shock Value
Жанр: R&B/Soul
Год выпуска: 2007
Производитель диска: Германия
Аудиокодек: FLAC
Тип рипа: Tracks+.CUE
Битрейт аудио: lossless
Продолжительность: 01:06:57

Треклист:
01. Oh Timbaland [0:03:30.93]
02. Give It to Me (feat. Nelly Furtado & Justin Timberlake) [0:03:54.08]
03. Release (feat. Justin Timberlake) [0:03:25.33]
04. The Way I Are (feat. Keri Hilson & D.O.E.) [0:02:59.28]
05. Bounce (feat. Dr. Dre, Missy Elliott & Justin Timberlake) [0:04:04.30]
06. Come and Get Me (feat. 50 Cent & Tony Yayo) [0:03:30.49]
07. Kill Yourself (feat. Sebastian & Attitude) [0:04:06.54]
08. Boardmeeting (feat. Magoo) [0:02:29.18]
09. Fantasy (feat. Money) [0:04:10.96]
10. Scream (feat. Keri Hilson & Nicole Scherzinger) [0:05:41.25]
11. Miscommunication (feat. Keri Hilson & Sebastian) [0:03:19.12]
12. Bombay (feat. Amar & Jim Beanz) [0:03:00.58]
13. Throw It on Me (feat. The Hives) [0:02:10.26]
14. Time (feat. She Wants Revenge) [0:03:58.18]
15. One and Only (feat. Fallout Boy) [0:04:16.60]
16. Apologize (feat. One Republic) [0:03:04.40]
17. 2 Man Show (feat. Elton John) [0:04:40.61]
18. Hello (feat. Keri Hilson & Attitude) (Bonus) [0:04:35.16]




Релиз группы:
Exact Audio Copy V0.99 prebeta 5 from 4. May 2009

EAC extraction logfile from 23. May 2010, 22:55

Timbaland / Timbaland Presents Shock Value

Used drive : TSSTcorpCDDVDW SH-S202J Adapter: 0 ID: 0

Read mode : Secure
Utilize accurate stream : Yes
Defeat audio cache : Yes
Make use of C2 pointers : No

Read offset correction : 6
Overread into Lead-In and Lead-Out : No
Fill up missing offset samples with silence : Yes
Delete leading and trailing silent blocks : No
Null samples used in CRC calculations : Yes
Used interface : Native Win32 interface for Win NT & 2000
Gap handling : Appended to previous track

Used output format : User Defined Encoder
Selected bitrate : 128 kBit/s
Quality : High
Add ID3 tag : No
Command line compressor : C:\Program Files\Exact Audio Copy\Flac\flac.exe
Additional command line options : -8 -V -T "ARTIST=%a" -T "TITLE=%t" -T "ALBUM=%g" -T "DATE=%y" -T "TRACKNUMBER=%n" -T "GENRE=%m" -T "COMMENT=EAC FLAC -8" %s

TOC of the extracted CD

Track | Start | Length | Start sector | End sector
---------------------------------------------------------
1 | 0:00.00 | 3:30.70 | 0 | 15819
2 | 3:30.70 | 3:54.06 | 15820 | 33375
3 | 7:25.01 | 3:25.25 | 33376 | 48775
4 | 10:50.26 | 2:59.21 | 48776 | 62221
5 | 13:49.47 | 4:04.23 | 62222 | 80544
6 | 17:53.70 | 3:30.37 | 80545 | 96331
7 | 21:24.32 | 4:06.41 | 96332 | 114822
8 | 25:30.73 | 2:29.14 | 114823 | 126011
9 | 28:00.12 | 4:10.72 | 126012 | 144833
10 | 32:11.09 | 5:41.19 | 144834 | 170427
11 | 37:52.28 | 3:19.09 | 170428 | 185361
12 | 41:11.37 | 3:00.44 | 185362 | 198905
13 | 44:12.06 | 2:10.20 | 198906 | 208675
14 | 46:22.26 | 3:58.14 | 208676 | 226539
15 | 50:20.40 | 4:16.45 | 226540 | 245784
16 | 54:37.10 | 3:04.30 | 245785 | 259614
17 | 57:41.40 | 4:40.46 | 259615 | 280660
18 | 62:22.11 | 4:35.12 | 280661 | 301297

Track 1

Filename D:\музыка на торент\Timbaland Presents Shock Value\01. Timbaland – Oh Timbaland.wav

Pre-gap length 0:00:02.00

Peak level 100.0 %
Track quality 100.0 %
Test CRC 40C029C8
Copy CRC 40C029C8
Accurately ripped (confidence 119) [64CFB32E]
Copy OK

Track 2

Filename D:\музыка на торент\Timbaland Presents Shock Value\02. Timbaland – Give It to Me (feat. Nelly Furtado & Justin Timberlake).wav

Peak level 100.0 %
Track quality 99.9 %
Test CRC 5091B08A
Copy CRC 5091B08A
Accurately ripped (confidence 121) [65801D21]
Copy OK

Track 3

Filename D:\музыка на торент\Timbaland Presents Shock Value\03. Timbaland – Release (feat. Justin Timberlake).wav

Peak level 100.0 %
Track quality 100.0 %
Test CRC 8379B9C5
Copy CRC 8379B9C5
Accurately ripped (confidence 120) [6D19A450]
Copy OK

Track 4

Filename D:\музыка на торент\Timbaland Presents Shock Value\04. Timbaland – The Way I Are (feat. Keri Hilson & D.O.E.).wav

Peak level 100.0 %
Track quality 100.0 %
Test CRC F08B95D3
Copy CRC F08B95D3
Accurately ripped (confidence 118) [FFD3D0BE]
Copy OK

Track 5

Filename D:\музыка на торент\Timbaland Presents Shock Value\05. Timbaland – Bounce (feat. Dr. Dre, Missy Elliott & Justin Timberlake).wav

Peak level 99.4 %
Track quality 100.0 %
Test CRC 4EE85A69
Copy CRC 4EE85A69
Accurately ripped (confidence 118) [BF9108DD]
Copy OK

Track 6

Filename D:\музыка на торент\Timbaland Presents Shock Value\06. Timbaland – Come and Get Me (feat. 50 Cent & Tony Yayo).wav

Peak level 100.0 %
Track quality 99.9 %
Test CRC A7532732
Copy CRC A7532732
Accurately ripped (confidence 119) [239AD6A5]
Copy OK

Track 7

Filename D:\музыка на торент\Timbaland Presents Shock Value\07. Timbaland – Kill Yourself (feat. Sebastian & Attitude).wav

Peak level 97.6 %
Track quality 100.0 %
Test CRC 3158090E
Copy CRC 3158090E
Accurately ripped (confidence 118) [26A58933]
Copy OK

Track 8

Filename D:\музыка на торент\Timbaland Presents Shock Value\08. Timbaland – Boardmeeting (feat. Magoo).wav

Peak level 100.0 %
Track quality 100.0 %
Test CRC 4BFDEE77
Copy CRC 4BFDEE77
Accurately ripped (confidence 119) [B6C69533]
Copy OK

Track 9

Filename D:\музыка на торент\Timbaland Presents Shock Value\09. Timbaland – Fantasy (feat. Money).wav

Peak level 100.0 %
Track quality 100.0 %
Test CRC 77BE5E56
Copy CRC 77BE5E56
Accurately ripped (confidence 122) [F4D80D09]
Copy OK

Track 10

Filename D:\музыка на торент\Timbaland Presents Shock Value\10. Timbaland – Scream (feat. Keri Hilson & Nicole Scherzinger).wav

Peak level 100.0 %
Track quality 100.0 %
Test CRC F6868EFA
Copy CRC F6868EFA
Accurately ripped (confidence 119) [222DCD2F]
Copy OK

Track 11

Filename D:\музыка на торент\Timbaland Presents Shock Value\11. Timbaland – Miscommunication (feat. Keri Hilson & Sebastian).wav

Peak level 100.0 %
Track quality 100.0 %
Test CRC 6DC13C98
Copy CRC 6DC13C98
Accurately ripped (confidence 119) [3A22A114]
Copy OK

Track 12

Filename D:\музыка на торент\Timbaland Presents Shock Value\12. Timbaland – Bombay (feat. Amar & Jim Beanz).wav

Peak level 100.0 %
Track quality 100.0 %
Test CRC EB686F65
Copy CRC EB686F65
Accurately ripped (confidence 117) [EE04BA6D]
Copy OK

Track 13

Filename D:\музыка на торент\Timbaland Presents Shock Value\13. Timbaland – Throw It on Me (feat. The Hives).wav

Peak level 100.0 %
Track quality 100.0 %
Test CRC DDDF3004
Copy CRC DDDF3004
Accurately ripped (confidence 117) [C5E4C092]
Copy OK

Track 14

Filename D:\музыка на торент\Timbaland Presents Shock Value\14. Timbaland – Time (feat. She Wants Revenge).wav

Peak level 100.0 %
Track quality 100.0 %
Test CRC CF197C69
Copy CRC CF197C69
Accurately ripped (confidence 120) [B1F81DA4]
Copy OK

Track 15

Filename D:\музыка на торент\Timbaland Presents Shock Value\15. Timbaland – One and Only (feat. Fallout Boy).wav

Peak level 100.0 %
Track quality 100.0 %
Test CRC E91FD463
Copy CRC E91FD463
Accurately ripped (confidence 120) [DB9457D0]
Copy OK

Track 16

Filename D:\музыка на торент\Timbaland Presents Shock Value\16. Timbaland – Apologize (feat. One Republic).wav

Peak level 100.0 %
Track quality 100.0 %
Test CRC 4DA4CD37
Copy CRC 4DA4CD37
Accurately ripped (confidence 122) [F630F37A]
Copy OK

Track 17

Filename D:\музыка на торент\Timbaland Presents Shock Value\17. Timbaland – 2 Man Show (feat. Elton John).wav

Peak level 100.0 %
Track quality 100.0 %
Test CRC 8F360063
Copy CRC 8F360063
Accurately ripped (confidence 118) [9596D60C]
Copy OK

Track 18

Filename D:\музыка на торент\Timbaland Presents Shock Value\18. Timbaland – Hello (feat. Keri Hilson & Attitude) (Bonus).wav

Pre-gap length 0:00:15.00

Peak level 100.0 %
Track quality 100.0 %
Test CRC 95FEEE6C
Copy CRC 95FEEE6C
Accurately ripped (confidence 116) [FF0C685F]
Copy OK

All tracks accurately ripped

No errors occurred

End of status report

Этот торрент недоступен для скачивания без регистрации, однако доступен по публичной magnet-ссылке (источники с публичных трекеров). Перед использованием ссылки прочтите, пожалуйста Пользовательское соглашение, а также как можно дольше оставайтесь на раздаче! Для того, чтобы скачать сам торрент-файл (который видит больше источников), а также для того, чтобы поблагодарить релизера, вам необходимо зарегистрироваться. Если регистрироваться лень - вы можете также попробовать скачать релиз по нашим партнерским ссылкам ниже.

[underverse.su].t10265.torrent
Трекер: Зарегистрирован   [ 23.05.2010 19:15 ]  

Статус: проверено (by M-i-i-i-ke at 23.05.2010 19:29)
Поблагодарили: 1 человек
Тип торрента: публичный - доступные источники с открытых трекеров: 
Размер: 459 MB (занимает 0,1 DVDR, для записи нужно 1 болванка DVDR/RW)
 
 
Похожие темы
Форум Тема Автор Торрент Отв. Посл. сооб.
Зарубежный R'n'B (Lossless) (R&B/Soul) Rihanna - Rated R: Remixed (Explicit Version) (2010) [FLAC (Tracks+.CUE), lossless] Bratok
0 | 1

1 | 2161

2

13.12.2012 15:42

Зарубежный R'n'B (Lossless) (R&B/Soul) Rihanna - Good Girl Gone Bad: The Remixes (2009) [FLAC (Tracks+.CUE), lossless] Bratok
0 | 2

0 | 1629

3

22.05.2010 19:38

Зарубежный R'n'B (Lossless) (R&B/Soul) Timbaland - Presents Shock Value II (2009) [FLAC (Tracks+.CUE), lossless] Bratok
0 | 0

0 | 1892

7

23.05.2010 04:34



Последний раз редактировалось: Bratok (03.06.2010 20:15), всего редактировалось 1 раз

oksana0758 Пол:Жен

24-Май-2010 14:23

Классная вещь! :good:

Яндекс.Метрика powered by Sphinx


В Н И М А Н И Е
Сайт не распространяет и не хранит электронные версии произведений, а лишь бесплатно и без коммерческой выгоды (не требуя взамен платы,
SMS и т.д.) предоставляет доступ к создаваемому пользователями каталогу ссылок на торрент-файлы, которые содержат только списки хеш-сумм.
Убедительная просьба с жалобами обращаться напрямую к пользователю, разместившему торрент файл.

Вверх