Loading...
Error

(R&B/Soul) Timbaland - Presents Shock Value II (2009) [FLAC (Tracks+.CUE), lossless]

Статистика раздачи
Размер:  523 MB   |    Зарегистрирован:  7 лет 5 месяцев   |    Скачан:  7 раз

Полного источника не было: 5 месяцев 3 дня

Сидов:  0  |  0 KB/s  ]   Личеров:  0  |  0 KB/s  ]

* - сиды/пиры с внешних источников

   
 
Автор Сообщение

Bratok Пол:Муж

23-Май-2010 04:34

Timbaland - Presents Shock Value II
Жанр: R&B/Soul
Год выпуска: 2009
Производитель диска: Германия
Аудиокодек: FLAC
Тип рипа: Tracks+.CUE
Битрейт аудио: lossless
Продолжительность: 01:15:13

Треклист:
01. Intro By DJ Felli Fell [0:00:48.85]
02. Carry Out (Feat. Justin Timberlake) [0:03:52.46]
03. Lose Control (Feat. JoJo) [0:04:27.80]
04. Meet In Tha Middle (Feat. Bran' Nu9 [0:04:00.86]
05. Say Something (Feat. Drake) [0:04:00.92]
06. Tomorrow In The Bottle (Feat. Chad Kroeger And Sebastian) [0:05:27.82]
07. We Belong To The Music (Feat. Miley Cyrus) [0:04:27.40]
08. Morning After Dark (Feat. Nelly Furtado And SoShy) [0:03:51.96]
09. If We Ever Meet Again (Feat. Katy Perry) [0:04:52.70]
10. Can You Feel It (Feat. Esthero And Sebastian) [0:04:44.13]
11. Ease Off The Liquor [0:05:58.37]
12. Undertow (Feat. The Fray And Esthero) [0:04:21.53]
13. Timothy Where Have You Been (Feat. Jet) [0:04:50.66]
14. Long Way Down (Feat. Daughtry) [0:04:23.44]
15. Marchin On (Feat. OneRepublic) (Timbo Version) [0:04:11.78]
16. The One I Love (Feat. Keri Hilson And D.O.E.) [0:04:34.04]
17. Symphony (Feat. Attitude, Bran' Nu And D.O.E.) [0:04:21.08]




Релиз группы:
Exact Audio Copy V0.99 prebeta 5 from 4. May 2009

EAC extraction logfile from 23. May 2010, 8:34

Timbaland / Shock Value II

Used drive : TSSTcorpCDDVDW SH-S202J Adapter: 0 ID: 0

Read mode : Secure
Utilize accurate stream : Yes
Defeat audio cache : Yes
Make use of C2 pointers : No

Read offset correction : 6
Overread into Lead-In and Lead-Out : No
Fill up missing offset samples with silence : Yes
Delete leading and trailing silent blocks : No
Null samples used in CRC calculations : Yes
Used interface : Native Win32 interface for Win NT & 2000
Gap handling : Appended to previous track

Used output format : User Defined Encoder
Selected bitrate : 128 kBit/s
Quality : High
Add ID3 tag : No
Command line compressor : C:\Program Files\Exact Audio Copy\Flac\flac.exe
Additional command line options : -8 -V -T "ARTIST=%a" -T "TITLE=%t" -T "ALBUM=%g" -T "DATE=%y" -T "TRACKNUMBER=%n" -T "GENRE=%m" -T "COMMENT=EAC FLAC -8" %s

TOC of the extracted CD

Track | Start | Length | Start sector | End sector
---------------------------------------------------------
1 | 0:00.00 | 0:48.64 | 0 | 3663
2 | 0:48.64 | 3:52.35 | 3664 | 21098
3 | 4:41.24 | 4:27.60 | 21099 | 41183
4 | 9:09.09 | 4:00.65 | 41184 | 59248
5 | 13:09.74 | 4:00.69 | 59249 | 77317
6 | 17:10.68 | 5:27.62 | 77318 | 101904
7 | 22:38.55 | 4:27.30 | 101905 | 121959
8 | 27:06.10 | 3:51.72 | 121960 | 139356
9 | 30:58.07 | 4:52.53 | 139357 | 161309
10 | 35:50.60 | 4:44.10 | 161310 | 182619
11 | 40:34.70 | 5:58.28 | 182620 | 209497
12 | 46:33.23 | 4:21.40 | 209498 | 229112
13 | 50:54.63 | 4:50.50 | 229113 | 250912
14 | 55:45.38 | 4:23.33 | 250913 | 270670
15 | 60:08.71 | 4:11.59 | 270671 | 289554
16 | 64:20.55 | 4:34.03 | 289555 | 310107
17 | 68:54.58 | 4:21.06 | 310108 | 329688

Track 1

Filename D:\музыка на торент\Timbaland Shock Value II\01. Timbaland – Intro By DJ Felli Fell.wav

Pre-gap length 0:00:02.00

Peak level 100.0 %
Track quality 100.0 %
Test CRC 32C35BFA
Copy CRC 32C35BFA
Accurately ripped (confidence 16) [EC9E395B]
Copy OK

Track 2

Filename D:\музыка на торент\Timbaland Shock Value II\02. Timbaland – Carry Out (Feat. Justin Timberlake).wav

Peak level 99.9 %
Track quality 100.0 %
Test CRC 8A597994
Copy CRC 8A597994
Accurately ripped (confidence 17) [1F8915A8]
Copy OK

Track 3

Filename D:\музыка на торент\Timbaland Shock Value II\03. Timbaland – Lose Control (Feat. JoJo).wav

Peak level 99.9 %
Track quality 100.0 %
Test CRC 1F9A9EAE
Copy CRC 1F9A9EAE
Accurately ripped (confidence 17) [1BBAB54A]
Copy OK

Track 4

Filename D:\музыка на торент\Timbaland Shock Value II\04. Timbaland – Meet In Tha Middle (Feat. Bran' Nu9.wav

Peak level 99.9 %
Track quality 100.0 %
Test CRC 55020A18
Copy CRC 55020A18
Accurately ripped (confidence 17) [484872DF]
Copy OK

Track 5

Filename D:\музыка на торент\Timbaland Shock Value II\05. Timbaland – Say Something (Feat. Drake).wav

Peak level 99.9 %
Track quality 100.0 %
Test CRC 0C70B090
Copy CRC 0C70B090
Accurately ripped (confidence 17) [7A5FED8A]
Copy OK

Track 6

Filename D:\музыка на торент\Timbaland Shock Value II\06. Timbaland – Tomorrow In The Bottle (Feat. Chad Kroeger And Sebastian).wav

Peak level 99.9 %
Track quality 100.0 %
Test CRC E0FB889F
Copy CRC E0FB889F
Accurately ripped (confidence 17) [090A3F71]
Copy OK

Track 7

Filename D:\музыка на торент\Timbaland Shock Value II\07. Timbaland – We Belong To The Music (Feat. Miley Cyrus).wav

Peak level 99.9 %
Track quality 100.0 %
Test CRC 1D66F2A8
Copy CRC 1D66F2A8
Accurately ripped (confidence 17) [C8EA0711]
Copy OK

Track 8

Filename D:\музыка на торент\Timbaland Shock Value II\08. Timbaland – Morning After Dark (Feat. Nelly Furtado And SoShy).wav

Peak level 87.0 %
Track quality 100.0 %
Test CRC 729D8B4C
Copy CRC 729D8B4C
Accurately ripped (confidence 17) [793FF105]
Copy OK

Track 9

Filename D:\музыка на торент\Timbaland Shock Value II\09. Timbaland – If We Ever Meet Again (Feat. Katy Perry).wav

Peak level 100.0 %
Track quality 100.0 %
Test CRC 46AD91B6
Copy CRC 46AD91B6
Accurately ripped (confidence 17) [90269854]
Copy OK

Track 10

Filename D:\музыка на торент\Timbaland Shock Value II\10. Timbaland – Can You Feel It (Feat. Esthero And Sebastian).wav

Peak level 99.9 %
Track quality 100.0 %
Test CRC 7331F4AE
Copy CRC 7331F4AE
Accurately ripped (confidence 17) [6C3E39D4]
Copy OK

Track 11

Filename D:\музыка на торент\Timbaland Shock Value II\11. Timbaland – Ease Off The Liquor.wav

Peak level 99.9 %
Track quality 100.0 %
Test CRC 7379A871
Copy CRC 7379A871
Accurately ripped (confidence 17) [611D4AA4]
Copy OK

Track 12

Filename D:\музыка на торент\Timbaland Shock Value II\12. Timbaland – Undertow (Feat. The Fray And Esthero).wav

Peak level 99.9 %
Track quality 100.0 %
Test CRC E60893F4
Copy CRC E60893F4
Accurately ripped (confidence 17) [B46AC48F]
Copy OK

Track 13

Filename D:\музыка на торент\Timbaland Shock Value II\13. Timbaland – Timothy Where Have You Been (Feat. Jet).wav

Peak level 99.9 %
Track quality 100.0 %
Test CRC FE5C271A
Copy CRC FE5C271A
Accurately ripped (confidence 17) [F662B552]
Copy OK

Track 14

Filename D:\музыка на торент\Timbaland Shock Value II\14. Timbaland – Long Way Down (Feat. Daughtry).wav

Pre-gap length 0:00:00.49

Peak level 99.9 %
Track quality 100.0 %
Test CRC 62960757
Copy CRC 62960757
Accurately ripped (confidence 17) [1D26D18C]
Copy OK

Track 15

Filename D:\музыка на торент\Timbaland Shock Value II\15. Timbaland – Marchin On (Feat. OneRepublic) (Timbo Version).wav

Peak level 99.9 %
Track quality 100.0 %
Test CRC 4CD7763D
Copy CRC 4CD7763D
Accurately ripped (confidence 17) [5F00AC33]
Copy OK

Track 16

Filename D:\музыка на торент\Timbaland Shock Value II\16. Timbaland – The One I Love (Feat. Keri Hilson And D.O.E.).wav

Peak level 99.9 %
Track quality 100.0 %
Test CRC 29B4721F
Copy CRC 29B4721F
Accurately ripped (confidence 17) [0DF2346F]
Copy OK

Track 17

Filename D:\музыка на торент\Timbaland Shock Value II\17. Timbaland – Symphony (Feat. Attitude, Bran' Nu And D.O.E.).wav

Peak level 99.9 %
Track quality 100.0 %
Test CRC B08A6C19
Copy CRC B08A6C19
Accurately ripped (confidence 16) [0EB2C029]
Copy OK

All tracks accurately ripped

No errors occurred

End of status report

Этот торрент недоступен для скачивания без регистрации, однако доступен по публичной magnet-ссылке (источники с публичных трекеров). Перед использованием ссылки прочтите, пожалуйста Пользовательское соглашение, а также как можно дольше оставайтесь на раздаче! Для того, чтобы скачать сам торрент-файл (который видит больше источников), а также для того, чтобы поблагодарить релизера, вам необходимо зарегистрироваться. Если регистрироваться лень - вы можете также попробовать скачать релиз по нашим партнерским ссылкам ниже.

[underverse.su].t10252.torrent
Трекер: Зарегистрирован   [ 23.05.2010 04:34 ]  

Статус: проверено (by M-i-i-i-ke at 23.05.2010 07:53)
Поблагодарили: 1 человек
Тип торрента: публичный - доступные источники с открытых трекеров: 
Размер: 523 MB (занимает 0,12 DVDR, для записи нужно 1 болванка DVDR/RW)
 
 
Похожие темы
Форум Тема Автор Торрент Отв. Посл. сооб.
Зарубежный R'n'B (Lossless) (R&B/Soul) Rihanna - Rated R: Remixed (Explicit Version) (2010) [FLAC (Tracks+.CUE), lossless] Bratok
0 | 1

1 | 2161

2

13.12.2012 15:42

Зарубежный R'n'B (Lossless) (R&B/Soul) Timbaland - Presents Shock Value (2007) [FLAC (Tracks+.CUE), lossless] Bratok
0 | 0

1 | 2205

9

24.05.2010 14:23

Зарубежный R'n'B (Lossless) (R&B/Soul) Rihanna - Good Girl Gone Bad: The Remixes (2009) [FLAC (Tracks+.CUE), lossless] Bratok
0 | 2

0 | 1629

3

22.05.2010 19:38



Последний раз редактировалось: Bratok (23.05.2010 04:57), всего редактировалось 1 раз

Яндекс.Метрика powered by Sphinx


В Н И М А Н И Е
Сайт не распространяет и не хранит электронные версии произведений, а лишь бесплатно и без коммерческой выгоды (не требуя взамен платы,
SMS и т.д.) предоставляет доступ к создаваемому пользователями каталогу ссылок на торрент-файлы, которые содержат только списки хеш-сумм.
Убедительная просьба с жалобами обращаться напрямую к пользователю, разместившему торрент файл.

Вверх