Loading...
Error

(R&B/Soul) Rihanna - Good Girl Gone Bad: The Remixes (2009) [FLAC (Tracks+.CUE), lossless]

Статистика раздачи
Размер:  354 MB   |    Зарегистрирован:  7 лет 5 месяцев   |    Скачан:  3 раза

Полного источника не было: 10 месяцев

Сидов:  0  |  0 KB/s  ]   Личеров:  1  |  0 KB/s  ]

* - сиды/пиры с внешних источников

   
 
Автор Сообщение

Bratok Пол:Муж

22-Май-2010 19:38

Rihanna - Good Girl Gone Bad: The Remixes
Жанр: R&B/Soul
Год выпуска: 2009
Производитель диска: Германия
Аудиокодек: FLAC
Тип рипа: Tracks+.CUE
Битрейт аудио: lossless
Продолжительность: 00:44:56

Треклист:
01. Rihanna f Jay Z / Umbrella (Seamus Haji and Paul Emanuel remix) [0:03:58.24]
02. Rihanna / Disturbia (Jody den Broeder remix) [0:03:52.13]
03. Rihanna / Shut Up and Drive (The Wideboys remix) [0:03:39.64]
04. Rihanna / Don't Stop The Music (Jody den Broeder remix) [0:03:10.82]
05. Rihanna / Take A Bow (Tony Moran and Warren Riggs remix) [0:04:02.48]
06. Rihanna / Breakin' Dishes (Soul Seekerz remix) [0:03:19.78]
07. Rihanna f Ne Yo / Hate That I Love You (K Klassic remix) [0:03:58.86]
08. Rihanna / Question Existing (The Wideboys remix) [0:03:40.96]
09. Rihanna / Push Up On Me (Moto Blanco remix) [0:03:28.93]
10. Rihanna / Good Girl Gone Bad (Soul Seekerz remix) [0:03:29.32]
11. Rihanna / Say It (Soul Seekerz remix) [0:04:21.38]
12. Rihanna f Jay Z / Umbrella (Lindbergh Palace remix) [0:03:53.80]




Релиз группы:
Exact Audio Copy V0.99 prebeta 5 from 4. May 2009

EAC extraction logfile from 22. May 2010, 23:35

Rihanna / Good Girl Gone Bad (The Remixes)

Used drive : TSSTcorpCDDVDW SH-S202J Adapter: 0 ID: 0

Read mode : Secure
Utilize accurate stream : Yes
Defeat audio cache : Yes
Make use of C2 pointers : No

Read offset correction : 6
Overread into Lead-In and Lead-Out : No
Fill up missing offset samples with silence : Yes
Delete leading and trailing silent blocks : No
Null samples used in CRC calculations : Yes
Used interface : Native Win32 interface for Win NT & 2000
Gap handling : Appended to previous track

Used output format : User Defined Encoder
Selected bitrate : 128 kBit/s
Quality : High
Add ID3 tag : No
Command line compressor : C:\Program Files\Exact Audio Copy\Flac\flac.exe
Additional command line options : -8 -V -T "ARTIST=%a" -T "TITLE=%t" -T "ALBUM=%g" -T "DATE=%y" -T "TRACKNUMBER=%n" -T "GENRE=%m" -T "COMMENT=EAC FLAC -8" %s

TOC of the extracted CD

Track | Start | Length | Start sector | End sector
---------------------------------------------------------
1 | 0:00.00 | 3:58.18 | 0 | 17867
2 | 3:58.18 | 3:52.10 | 17868 | 35277
3 | 7:50.28 | 3:39.48 | 35278 | 51750
4 | 11:30.01 | 3:10.62 | 51751 | 66062
5 | 14:40.63 | 4:02.36 | 66063 | 84248
6 | 18:43.24 | 3:19.59 | 84249 | 99232
7 | 22:03.08 | 3:58.65 | 99233 | 117147
8 | 26:01.73 | 3:40.72 | 117148 | 133719
9 | 29:42.70 | 3:28.70 | 133720 | 149389
10 | 33:11.65 | 3:29.24 | 149390 | 165088
11 | 36:41.14 | 4:21.29 | 165089 | 184692
12 | 41:02.43 | 3:53.60 | 184693 | 202227

Track 1

Filename D:\музыка на торент\Rihanna Good Girl Gone Bad (The Remixes)\01. Rihanna – Rihanna f Jay Z , Umbrella (Seamus Haji and Paul Emanuel remix).wav

Pre-gap length 0:00:02.00

Peak level 98.0 %
Track quality 100.0 %
Test CRC A124363D
Copy CRC A124363D
Accurately ripped (confidence 21) [8CCED980]
Copy OK

Track 2

Filename D:\музыка на торент\Rihanna Good Girl Gone Bad (The Remixes)\02. Rihanna – Rihanna , Disturbia (Jody den Broeder remix).wav

Peak level 98.4 %
Track quality 100.0 %
Test CRC 6795D9F3
Copy CRC 6795D9F3
Accurately ripped (confidence 21) [38C4B3B4]
Copy OK

Track 3

Filename D:\музыка на торент\Rihanna Good Girl Gone Bad (The Remixes)\03. Rihanna – Rihanna , Shut Up and Drive (The Wideboys remix).wav

Pre-gap length 0:00:00.96

Peak level 99.2 %
Track quality 100.0 %
Test CRC BC020416
Copy CRC BC020416
Accurately ripped (confidence 21) [9D1EBE16]
Copy OK

Track 4

Filename D:\музыка на торент\Rihanna Good Girl Gone Bad (The Remixes)\04. Rihanna – Rihanna , Don't Stop The Music (Jody den Broeder remix).wav

Pre-gap length 0:00:00.60

Peak level 98.5 %
Track quality 100.0 %
Test CRC F4A87A35
Copy CRC F4A87A35
Accurately ripped (confidence 21) [2F74F4D1]
Copy OK

Track 5

Filename D:\музыка на торент\Rihanna Good Girl Gone Bad (The Remixes)\05. Rihanna – Rihanna , Take A Bow (Tony Moran and Warren Riggs remix).wav

Pre-gap length 0:00:01.10

Peak level 94.4 %
Track quality 100.0 %
Test CRC 6C196C01
Copy CRC 6C196C01
Accurately ripped (confidence 21) [8B8910FD]
Copy OK

Track 6

Filename D:\музыка на торент\Rihanna Good Girl Gone Bad (The Remixes)\06. Rihanna – Rihanna , Breakin' Dishes (Soul Seekerz remix).wav

Pre-gap length 0:00:00.21

Peak level 98.4 %
Track quality 100.0 %
Test CRC 42D0D7C7
Copy CRC 42D0D7C7
Accurately ripped (confidence 21) [3E0E3166]
Copy OK

Track 7

Filename D:\музыка на торент\Rihanna Good Girl Gone Bad (The Remixes)\07. Rihanna – Rihanna f Ne Yo , Hate That I Love You (K Klassic remix).wav

Pre-gap length 0:00:00.14

Peak level 98.0 %
Track quality 100.0 %
Test CRC E0BEF2B6
Copy CRC E0BEF2B6
Accurately ripped (confidence 21) [EEE43FB5]
Copy OK

Track 8

Filename D:\музыка на торент\Rihanna Good Girl Gone Bad (The Remixes)\08. Rihanna – Rihanna , Question Existing (The Wideboys remix).wav

Pre-gap length 0:00:00.25

Peak level 97.3 %
Track quality 100.0 %
Test CRC 23C81286
Copy CRC 23C81286
Accurately ripped (confidence 21) [EC96C1D8]
Copy OK

Track 9

Filename D:\музыка на торент\Rihanna Good Girl Gone Bad (The Remixes)\09. Rihanna – Rihanna , Push Up On Me (Moto Blanco remix).wav

Pre-gap length 0:00:00.52

Peak level 97.7 %
Track quality 100.0 %
Test CRC FD2C3B75
Copy CRC FD2C3B75
Accurately ripped (confidence 21) [4A65E3A2]
Copy OK

Track 10

Filename D:\музыка на торент\Rihanna Good Girl Gone Bad (The Remixes)\10. Rihanna – Rihanna , Good Girl Gone Bad (Soul Seekerz remix).wav

Pre-gap length 0:00:00.18

Peak level 98.6 %
Track quality 100.0 %
Test CRC B1B0AF05
Copy CRC B1B0AF05
Accurately ripped (confidence 21) [CFF0FBB4]
Copy OK

Track 11

Filename D:\музыка на торент\Rihanna Good Girl Gone Bad (The Remixes)\11. Rihanna – Rihanna , Say It (Soul Seekerz remix).wav

Pre-gap length 0:00:01.10

Peak level 98.8 %
Track quality 100.0 %
Test CRC CCE5B50E
Copy CRC CCE5B50E
Accurately ripped (confidence 21) [AA516641]
Copy OK

Track 12

Filename D:\музыка на торент\Rihanna Good Girl Gone Bad (The Remixes)\12. Rihanna – Rihanna f Jay Z , Umbrella (Lindbergh Palace remix).wav

Pre-gap length 0:00:01.00

Peak level 99.5 %
Track quality 99.9 %
Test CRC 30ED75AF
Copy CRC 30ED75AF
Accurately ripped (confidence 21) [2EA8AB24]
Copy OK

All tracks accurately ripped

No errors occurred

End of status report

Этот торрент недоступен для скачивания без регистрации, однако доступен по публичной magnet-ссылке (источники с публичных трекеров). Перед использованием ссылки прочтите, пожалуйста Пользовательское соглашение, а также как можно дольше оставайтесь на раздаче! Для того, чтобы скачать сам торрент-файл (который видит больше источников), а также для того, чтобы поблагодарить релизера, вам необходимо зарегистрироваться. Если регистрироваться лень - вы можете также попробовать скачать релиз по нашим партнерским ссылкам ниже.

[underverse.su].t10246.torrent
Трекер: Зарегистрирован   [ 22.05.2010 19:38 ]  

Статус: проверено (by M-i-i-i-ke at 22.05.2010 19:50)
Поблагодарили: 1 человек
Тип торрента: публичный - доступные источники с открытых трекеров: 
Размер: 354 MB (занимает 0,08 DVDR, для записи нужно 1 болванка DVDR/RW)
 
 
Похожие темы
Форум Тема Автор Торрент Отв. Посл. сооб.
Зарубежный R'n'B (Lossless) (R&B/Soul) Rihanna - Rated R: Remixed (Explicit Version) (2010) [FLAC (Tracks+.CUE), lossless] Bratok
0 | 1

1 | 2161

2

13.12.2012 15:42

Зарубежный R'n'B (Lossless) (R&B/Soul) Timbaland - Presents Shock Value (2007) [FLAC (Tracks+.CUE), lossless] Bratok
0 | 0

1 | 2205

9

24.05.2010 14:23

Зарубежный R'n'B (Lossless) (R&B/Soul) Timbaland - Presents Shock Value II (2009) [FLAC (Tracks+.CUE), lossless] Bratok
0 | 0

0 | 1892

7

23.05.2010 04:34



Последний раз редактировалось: Bratok (23.05.2010 04:50), всего редактировалось 3 раз(а)

Яндекс.Метрика powered by Sphinx


В Н И М А Н И Е
Сайт не распространяет и не хранит электронные версии произведений, а лишь бесплатно и без коммерческой выгоды (не требуя взамен платы,
SMS и т.д.) предоставляет доступ к создаваемому пользователями каталогу ссылок на торрент-файлы, которые содержат только списки хеш-сумм.
Убедительная просьба с жалобами обращаться напрямую к пользователю, разместившему торрент файл.

Вверх