Loading...
Error

(Progressive Trance) VA - Las Vegas '10 (Mixed by Markus Schulz) (2CD) (2010) [FLAC (Tracks+.CUE), lossless]

Статистика раздачи
Размер:  1,1 GB   |    Зарегистрирован:  8 лет   |    Скачан:  2 раза

Полного источника не было: 3 года 8 месяцев

Сидов:  0  |  0 KB/s  ]   Личеров:  0  |  0 KB/s  ]

* - сиды/пиры с внешних источников

   
 
Автор Сообщение

Bratok Пол:Муж

21-Май-2010 18:20

VA - Las Vegas '10 (Mixed by Markus Schulz) (2CD)
Жанр: Progressive Trance
Год выпуска: 2010
Аудиокодек: FLAC
Тип рипа: Tracks+.CUE
Битрейт аудио: lossless
Продолжительность: CD1 - 01:18:47, CD2 - 01:17:12

Треклист:
CD:1
01.Clinch / Rain [0:02:12.16]
02.Torin Schmitt feat. Ryan Merchant / Follow [0:06:51.58]
03.ElSandro / Style Fusion (Jessus Progressivo Mix) [0:05:28.29]
04.Dakota / Chinook (Deep Mix) [0:06:47.32]
05.Rex Mundi / Opera Of The Northern Ocean [0:05:19.10]
06.Mike Foyle presents Statica / Blossom [0:06:45.17]
07.Veselin Tasev / Pacific Waves (Evgeny Bardyuzha Remix) [0:03:37.98]
08.Mr. Pit / Simplicity [0:05:16.69]
09.Karanda feat. David Call / On Hold [0:04:58.84]
10.Arnej / Ping Pong [0:05:43.76]
11.Phynn presents Binary Star / The Halo Effect [0:06:11.93]
12.Norin & Rad / Always A New Day [0:06:54.82]
13.Thomas Cresine / Daimyo [0:06:15.53]
14.Anton Firtich feat. Victoria Mazze / Meant To Be Free [0:06:23.90]

CD:2
01.Dakota / Sin City (Intro Mix) [0:00:59.28]
02.Skytech / Comet [0:05:10.02]
03.Julian Vincent feat. Cathy Burton / Here For Me (Mark Otten Extended Mix) [0:04:25.34]
04.Re / Ward vs Dr Willis - Maaybe (tyDi's Stadium Mix) [0:05:41.65]
05.David Forbes / Katsu [0:05:51.38]
06.Arnej / They Need Us [0:04:40.90]
07.Max Graham feat. Neev Kennedy / Sun In The Winter [0:05:20.06]
08.Trilucid / Departures (Yuri Kane Remix) [0:06:06.01]
09.Robert Burian feat. Zdenka Predna / You (Club Mix) [0:05:46.60]
10.Mr. Pit / This Room Is Not Big Enough [0:05:02.13]
11.Wilson, Smallwood & Ingram / Koko [0:04:46.72]
12.Ummet Ozcan / Next Phase (Phase 1 Mix) [0:05:26.78]
13.Mike Foyle presents Statica / Deadly Nightshade (Phynn Remix) [0:05:56.70]
14.Beat Service meets Tucandeo feat. Manon Polare / Waiting For The Sun [0:04:59.62]
15.Shogun / Connected [0:06:59.14]


Релиз группы:
Exact Audio Copy V0.99 prebeta 5 from 4. May 2009

EAC extraction logfile from 21. May 2010, 21:42

Markus Schulz / Las Vegas '10 - CD1

Used drive : TSSTcorpCDDVDW SH-S202J Adapter: 0 ID: 0

Read mode : Secure
Utilize accurate stream : Yes
Defeat audio cache : Yes
Make use of C2 pointers : No

Read offset correction : 6
Overread into Lead-In and Lead-Out : No
Fill up missing offset samples with silence : Yes
Delete leading and trailing silent blocks : No
Null samples used in CRC calculations : Yes
Used interface : Native Win32 interface for Win NT & 2000
Gap handling : Appended to previous track

Used output format : User Defined Encoder
Selected bitrate : 128 kBit/s
Quality : High
Add ID3 tag : No
Command line compressor : C:\Program Files\Exact Audio Copy\Flac\flac.exe
Additional command line options : -8 -V -T "ARTIST=%a" -T "TITLE=%t" -T "ALBUM=%g" -T "DATE=%y" -T "TRACKNUMBER=%n" -T "GENRE=%m" -T "COMMENT=EAC FLAC -8" %s

TOC of the extracted CD

Track | Start | Length | Start sector | End sector
---------------------------------------------------------
1 | 0:00.00 | 2:12.12 | 0 | 9911
2 | 2:12.12 | 6:51.44 | 9912 | 40780
3 | 9:03.56 | 5:28.22 | 40781 | 65402
4 | 14:32.03 | 6:47.24 | 65403 | 95951
5 | 21:19.27 | 5:19.08 | 95952 | 119884
6 | 26:38.35 | 6:45.13 | 119885 | 150272
7 | 33:23.48 | 3:37.74 | 150273 | 166621
8 | 37:01.47 | 5:16.52 | 166622 | 190373
9 | 42:18.24 | 4:58.63 | 190374 | 212786
10 | 47:17.12 | 5:43.57 | 212787 | 238568
11 | 53:00.69 | 6:11.70 | 238569 | 266463
12 | 59:12.64 | 6:54.62 | 266464 | 297575
13 | 66:07.51 | 6:15.40 | 297576 | 325740
14 | 72:23.16 | 6:23.68 | 325741 | 354533

Track 1

Filename D:\музыка на торент\Markus Schulz Las Vegas '10\Las Vegas '10 - CD1\01. Markus Schulz – 01 Clinch , Rain.wav

Pre-gap length 0:00:02.00

Peak level 96.6 %
Track quality 99.9 %
Test CRC 84E916AB
Copy CRC 84E916AB
Cannot be verified as accurate (confidence 1) [29C0FDC6], AccurateRip returned [B0A549D7]
Copy OK

Track 2

Filename D:\музыка на торент\Markus Schulz Las Vegas '10\Las Vegas '10 - CD1\02. Markus Schulz – 02 Torin Schmitt feat. Ryan Merchant , Follow.wav

Peak level 96.6 %
Track quality 100.0 %
Test CRC 452D681D
Copy CRC 452D681D
Cannot be verified as accurate (confidence 1) [7BE51F1E], AccurateRip returned [A562F486]
Copy OK

Track 3

Filename D:\музыка на торент\Markus Schulz Las Vegas '10\Las Vegas '10 - CD1\03. Markus Schulz – 03 ElSandro , Style Fusion (Jessus Progressivo Mix).wav

Peak level 96.6 %
Track quality 100.0 %
Test CRC BDCFF270
Copy CRC BDCFF270
Cannot be verified as accurate (confidence 1) [52D0ABE1], AccurateRip returned [74F2596F]
Copy OK

Track 4

Filename D:\музыка на торент\Markus Schulz Las Vegas '10\Las Vegas '10 - CD1\04. Markus Schulz – 04 Dakota , Chinook (Deep Mix).wav

Peak level 96.6 %
Track quality 100.0 %
Test CRC F5EF1C8E
Copy CRC F5EF1C8E
Cannot be verified as accurate (confidence 1) [4C9161DF], AccurateRip returned [5CA7DAE1]
Copy OK

Track 5

Filename D:\музыка на торент\Markus Schulz Las Vegas '10\Las Vegas '10 - CD1\05. Markus Schulz – 05 Rex Mundi , Opera Of The Northern Ocean.wav

Peak level 96.6 %
Track quality 99.9 %
Test CRC CBBFC426
Copy CRC CBBFC426
Cannot be verified as accurate (confidence 1) [0303C9A1], AccurateRip returned [D526354A]
Copy OK

Track 6

Filename D:\музыка на торент\Markus Schulz Las Vegas '10\Las Vegas '10 - CD1\06. Markus Schulz – 06 Mike Foyle presents Statica , Blossom.wav

Peak level 96.6 %
Track quality 100.0 %
Test CRC 5E3F4BFB
Copy CRC 5E3F4BFB
Cannot be verified as accurate (confidence 1) [5EA6FF9D], AccurateRip returned [C93C65EE]
Copy OK

Track 7

Filename D:\музыка на торент\Markus Schulz Las Vegas '10\Las Vegas '10 - CD1\07. Markus Schulz – 07 Veselin Tasev , Pacific Waves (Evgeny Bardyuzha Remix).wav

Peak level 96.6 %
Track quality 100.0 %
Test CRC B827A564
Copy CRC B827A564
Cannot be verified as accurate (confidence 1) [53F124D8], AccurateRip returned [7FAAA548]
Copy OK

Track 8

Filename D:\музыка на торент\Markus Schulz Las Vegas '10\Las Vegas '10 - CD1\08. Markus Schulz – 08 Mr. Pit , Simplicity.wav

Peak level 96.6 %
Track quality 100.0 %
Test CRC A54667D3
Copy CRC A54667D3
Cannot be verified as accurate (confidence 1) [59EDE2DC], AccurateRip returned [CA9DB967]
Copy OK

Track 9

Filename D:\музыка на торент\Markus Schulz Las Vegas '10\Las Vegas '10 - CD1\09. Markus Schulz – 09 Karanda feat. David Call , On Hold.wav

Peak level 96.6 %
Track quality 99.9 %
Test CRC 198BCBFD
Copy CRC 198BCBFD
Cannot be verified as accurate (confidence 1) [041658AB], AccurateRip returned [2EC0D6B3]
Copy OK

Track 10

Filename D:\музыка на торент\Markus Schulz Las Vegas '10\Las Vegas '10 - CD1\10. Markus Schulz – 10 Arnej , Ping Pong.wav

Peak level 96.6 %
Track quality 100.0 %
Test CRC 8DBFFDF3
Copy CRC 8DBFFDF3
Cannot be verified as accurate (confidence 1) [2669A771], AccurateRip returned [74940283]
Copy OK

Track 11

Filename D:\музыка на торент\Markus Schulz Las Vegas '10\Las Vegas '10 - CD1\11. Markus Schulz – 11 Phynn presents Binary Star , The Halo Effect.wav

Peak level 96.6 %
Track quality 100.0 %
Test CRC 543CEC3B
Copy CRC 543CEC3B
Cannot be verified as accurate (confidence 1) [4323B0F0], AccurateRip returned [16AF31C8]
Copy OK

Track 12

Filename D:\музыка на торент\Markus Schulz Las Vegas '10\Las Vegas '10 - CD1\12. Markus Schulz – 12 Norin & Rad , Always A New Day.wav

Peak level 96.6 %
Track quality 100.0 %
Test CRC E4AEF59A
Copy CRC E4AEF59A
Cannot be verified as accurate (confidence 1) [4F1A8433], AccurateRip returned [58DAD44B]
Copy OK

Track 13

Filename D:\музыка на торент\Markus Schulz Las Vegas '10\Las Vegas '10 - CD1\13. Markus Schulz – 13 Thomas Cresine , Daimyo.wav

Peak level 96.6 %
Track quality 100.0 %
Test CRC 353329B9
Copy CRC 353329B9
Cannot be verified as accurate (confidence 1) [0965A4AE], AccurateRip returned [2D934BA1]
Copy OK

Track 14

Filename D:\музыка на торент\Markus Schulz Las Vegas '10\Las Vegas '10 - CD1\14. Markus Schulz – 14 Anton Firtich feat. Victoria Mazze , Meant To Be Free.wav

Peak level 96.6 %
Track quality 99.9 %
Test CRC 076B8836
Copy CRC 076B8836
Cannot be verified as accurate (confidence 1) [2ED3CAE5], AccurateRip returned [32B477CF]
Copy OK

No tracks could be verified as accurate
You may have a different pressing from the one(s) in the database

No errors occurred

End of status report
Exact Audio Copy V0.99 prebeta 5 from 4. May 2009

EAC extraction logfile from 21. May 2010, 22:06

Markus Schulz / Las Vegas '10 - CD2

Used drive : TSSTcorpCDDVDW SH-S202J Adapter: 0 ID: 0

Read mode : Secure
Utilize accurate stream : Yes
Defeat audio cache : Yes
Make use of C2 pointers : No

Read offset correction : 6
Overread into Lead-In and Lead-Out : No
Fill up missing offset samples with silence : Yes
Delete leading and trailing silent blocks : No
Null samples used in CRC calculations : Yes
Used interface : Native Win32 interface for Win NT & 2000
Gap handling : Appended to previous track

Used output format : User Defined Encoder
Selected bitrate : 128 kBit/s
Quality : High
Add ID3 tag : No
Command line compressor : C:\Program Files\Exact Audio Copy\Flac\flac.exe
Additional command line options : -8 -V -T "ARTIST=%a" -T "TITLE=%t" -T "ALBUM=%g" -T "DATE=%y" -T "TRACKNUMBER=%n" -T "GENRE=%m" -T "COMMENT=EAC FLAC -8" %s

TOC of the extracted CD

Track | Start | Length | Start sector | End sector
---------------------------------------------------------
1 | 0:00.00 | 0:59.21 | 0 | 4445
2 | 0:59.21 | 5:10.02 | 4446 | 27697
3 | 6:09.23 | 4:25.26 | 27698 | 47598
4 | 10:34.49 | 5:41.49 | 47599 | 73222
5 | 16:16.23 | 5:51.29 | 73223 | 99576
6 | 22:07.52 | 4:40.68 | 99577 | 120644
7 | 26:48.45 | 5:20.05 | 120645 | 144649
8 | 32:08.50 | 6:06.01 | 144650 | 172100
9 | 38:14.51 | 5:46.45 | 172101 | 198095
10 | 44:01.21 | 5:02.10 | 198096 | 220755
11 | 49:03.31 | 4:46.54 | 220756 | 242259
12 | 53:50.10 | 5:26.59 | 242260 | 266768
13 | 59:16.69 | 5:56.53 | 266769 | 293521
14 | 65:13.47 | 4:59.47 | 293522 | 315993
15 | 70:13.19 | 6:59.11 | 315994 | 347429

Track 1

Filename D:\музыка на торент\Markus Schulz Las Vegas '10\Las Vegas '10 - CD2\01. Markus Schulz – 01 Dakota , Sin City (Intro Mix).wav

Pre-gap length 0:00:02.00

Peak level 96.6 %
Track quality 100.0 %
Test CRC EEDAD4EB
Copy CRC EEDAD4EB
Cannot be verified as accurate (confidence 1) [3E9F1AF2], AccurateRip returned [90DB5678]
Copy OK

Track 2

Filename D:\музыка на торент\Markus Schulz Las Vegas '10\Las Vegas '10 - CD2\02. Markus Schulz – 02 Skytech , Comet.wav

Peak level 96.6 %
Track quality 100.0 %
Test CRC 3A18DC82
Copy CRC 3A18DC82
Cannot be verified as accurate (confidence 1) [8BF4EA2B], AccurateRip returned [FF0CD324]
Copy OK

Track 3

Filename D:\музыка на торент\Markus Schulz Las Vegas '10\Las Vegas '10 - CD2\03. Markus Schulz – 03 Julian Vincent feat. Cathy Burton , Here For Me (Mark Otten Extended Mix).wav

Peak level 96.6 %
Track quality 99.9 %
Test CRC A8519945
Copy CRC A8519945
Cannot be verified as accurate (confidence 1) [E4A99988], AccurateRip returned [959806CD]
Copy OK

Track 4

Filename D:\музыка на торент\Markus Schulz Las Vegas '10\Las Vegas '10 - CD2\04. Markus Schulz – 04 Re , Ward vs Dr Willis - Maaybe (tyDi's Stadium Mix).wav

Peak level 96.6 %
Track quality 100.0 %
Test CRC DA9D383D
Copy CRC DA9D383D
Cannot be verified as accurate (confidence 1) [A562BEB8], AccurateRip returned [67FA0189]
Copy OK

Track 5

Filename D:\музыка на торент\Markus Schulz Las Vegas '10\Las Vegas '10 - CD2\05. Markus Schulz – 05 David Forbes , Katsu.wav

Peak level 96.6 %
Track quality 100.0 %
Test CRC C7B7A4CA
Copy CRC C7B7A4CA
Cannot be verified as accurate (confidence 1) [257FC63B], AccurateRip returned [456554A4]
Copy OK

Track 6

Filename D:\музыка на торент\Markus Schulz Las Vegas '10\Las Vegas '10 - CD2\06. Markus Schulz – 06 Arnej , They Need Us.wav

Peak level 96.6 %
Track quality 99.9 %
Test CRC FC5FBDF5
Copy CRC FC5FBDF5
Cannot be verified as accurate (confidence 1) [CD13DC9F], AccurateRip returned [D41E2BF2]
Copy OK

Track 7

Filename D:\музыка на торент\Markus Schulz Las Vegas '10\Las Vegas '10 - CD2\07. Markus Schulz – 07 Max Graham feat. Neev Kennedy , Sun In The Winter.wav

Peak level 96.6 %
Track quality 100.0 %
Test CRC 32C8226C
Copy CRC 32C8226C
Cannot be verified as accurate (confidence 1) [DD46B79F], AccurateRip returned [619DBF3C]
Copy OK

Track 8

Filename D:\музыка на торент\Markus Schulz Las Vegas '10\Las Vegas '10 - CD2\08. Markus Schulz – 08 Trilucid , Departures (Yuri Kane Remix).wav

Peak level 96.6 %
Track quality 100.0 %
Test CRC CC6833FB
Copy CRC CC6833FB
Cannot be verified as accurate (confidence 1) [0FC861F6], AccurateRip returned [0AC29D91]
Copy OK

Track 9

Filename D:\музыка на торент\Markus Schulz Las Vegas '10\Las Vegas '10 - CD2\09. Markus Schulz – 09 Robert Burian feat. Zdenka Predna , You (Club Mix).wav

Peak level 96.6 %
Track quality 100.0 %
Test CRC 6380CB32
Copy CRC 6380CB32
Cannot be verified as accurate (confidence 1) [457080A7], AccurateRip returned [CEA6C759]
Copy OK

Track 10

Filename D:\музыка на торент\Markus Schulz Las Vegas '10\Las Vegas '10 - CD2\10. Markus Schulz – 10 Mr. Pit , This Room Is Not Big Enough.wav

Peak level 96.6 %
Track quality 100.0 %
Test CRC 963D8AA9
Copy CRC 963D8AA9
Cannot be verified as accurate (confidence 1) [71E45000], AccurateRip returned [82A41B3A]
Copy OK

Track 11

Filename D:\музыка на торент\Markus Schulz Las Vegas '10\Las Vegas '10 - CD2\11. Markus Schulz – 11 Wilson, Smallwood & Ingram , Koko.wav

Peak level 96.6 %
Track quality 100.0 %
Test CRC 38E068C8
Copy CRC 38E068C8
Cannot be verified as accurate (confidence 1) [500B2985], AccurateRip returned [6A6DFB52]
Copy OK

Track 12

Filename D:\музыка на торент\Markus Schulz Las Vegas '10\Las Vegas '10 - CD2\12. Markus Schulz – 12 Ummet Ozcan , Next Phase (Phase 1 Mix).wav

Peak level 96.6 %
Track quality 100.0 %
Test CRC 4BF73542
Copy CRC 4BF73542
Cannot be verified as accurate (confidence 1) [03B62DD7], AccurateRip returned [D67F4DDD]
Copy OK

Track 13

Filename D:\музыка на торент\Markus Schulz Las Vegas '10\Las Vegas '10 - CD2\13. Markus Schulz – 13 Mike Foyle presents Statica , Deadly Nightshade (Phynn Remix).wav

Peak level 96.6 %
Track quality 100.0 %
Test CRC BB5AC35B
Copy CRC BB5AC35B
Cannot be verified as accurate (confidence 1) [FCBFF57F], AccurateRip returned [B34314F6]
Copy OK

Track 14

Filename D:\музыка на торент\Markus Schulz Las Vegas '10\Las Vegas '10 - CD2\14. Markus Schulz – 14 Beat Service meets Tucandeo feat. Manon Polare , Waiting For The Sun.wav

Peak level 96.6 %
Track quality 100.0 %
Test CRC D99E842C
Copy CRC D99E842C
Cannot be verified as accurate (confidence 1) [D92FF5D9], AccurateRip returned [4BB7EA4B]
Copy OK

Track 15

Filename D:\музыка на торент\Markus Schulz Las Vegas '10\Las Vegas '10 - CD2\15. Markus Schulz – 15 Shogun , Connected.wav

Peak level 96.6 %
Track quality 100.0 %
Test CRC A6A3185A
Copy CRC A6A3185A
Cannot be verified as accurate (confidence 1) [D8F6D94C], AccurateRip returned [B0F9D869]
Copy OK

No tracks could be verified as accurate
You may have a different pressing from the one(s) in the database

No errors occurred

End of status report

Этот торрент недоступен для скачивания без регистрации, однако доступен по публичной magnet-ссылке (источники с публичных трекеров). Перед использованием ссылки прочтите, пожалуйста Пользовательское соглашение, а также как можно дольше оставайтесь на раздаче! Для того, чтобы скачать сам торрент-файл (который видит больше источников), а также для того, чтобы поблагодарить релизера, вам необходимо зарегистрироваться. Если регистрироваться лень - вы можете также попробовать скачать релиз по нашим партнерским ссылкам ниже. Кроме того, зарегистрированным пользователям не показывается всплывающая реклама при скачивании.

[underverse.su].t10233.torrent
Трекер: Зарегистрирован   [ 21.05.2010 18:27 ]  

Статус: проверено (by M-i-i-i-ke at 21.05.2010 20:13)
Поблагодарили: 1 человек
Тип торрента: публичный - доступные источники с открытых трекеров: 
Размер: 1,1 GB (занимает 0,25 DVDR, для записи нужно 1 болванка DVDR/RW)
 
 
Похожие темы
Форум Тема Автор Торрент Отв. Посл. сооб.
Зарубежный Hard, Progressive, Soft, Melodic, AOR, Folk, Classic Rock (Progressive Rock) Liquid Blue Thursdays - Redacted Essays From Nowhere (2017) [MP3, 320 kbps CBR] Darkferse
1 | 0

0 | 634

4

04.04.2017 15:21

Зарубежный Hard, Progressive, Soft, Melodic, AOR, Folk, Classic Rock (Progressive Rock) Family Free Rock - In Full Swing (2017) [MP3, 320 kbps CBR] Darkferse
1 | 1

0 | 470

2

05.06.2017 09:20

Зарубежный Hard, Progressive, Soft, Melodic, AOR, Folk, Classic Rock (Progressive, Art-Rock) VA - The Many Faces of Pink Floyd: A Journey Through The Inner World of Pink Floyd (2013) (3CD) [MP3, 320 kbps CBR] saw444
2 | 1

3 | 1604

24

29.12.2013 06:14

Зарубежный Hard, Progressive, Soft, Melodic, AOR, Folk, Classic Rock (Progressive Rock) Asia - Gravitas [Deluxe Edition] (2014) [MP3 (tracks), 320 kbps] Jimmy
0 | 0

0 | 1906

20

22.03.2014 17:23

Зарубежный Hard, Progressive, Soft, Melodic, AOR, Folk, Classic Rock (Progressive Rock) Akrasy - Tsunami: Love (2016) [MP3, 320 kbps CBR] Darkferse
1 | 0

0 | 782

2

11.12.2016 14:19

Зарубежный Hard, Progressive, Soft, Melodic, AOR, Folk, Classic Rock (Progressive Rock, Hard Rock) Chris Brockbank's Phantom MkV - Phantom (2017) [MP3, 320 kbps CBR] Darkferse
3 | 0

0 | 507

2

05.06.2017 09:17

Зарубежный Hard, Progressive, Soft, Melodic, AOR, Folk, Classic Rock (Progressive Rock) Elephant Plaza - Momentum (2016) [MP3, 320 kbps CBR] IronMan
0 | 0

0 | 931

3

26.06.2016 17:08

Зарубежный Hard, Progressive, Soft, Melodic, AOR, Folk, Classic Rock (Progressive Rock) The Watch - Seven (2017) [MP3, 320 kbps CBR] Darkferse
1 | 0

0 | 919

3

29.05.2017 18:50

Зарубежный Hard, Progressive, Soft, Melodic, AOR, Folk, Classic Rock (Progressive Rock, Stoner Rock) Brieg Guerveno - Valgori (2016) [MP3, 320 kbps CBR] Darkferse
1 | 0

0 | 719

1

09.01.2017 09:41

Зарубежный Hard, Progressive, Soft, Melodic, AOR, Folk, Classic Rock (Progressive Rock, Blues Rock) Quatermass - Quatermass (1990) [FLAC (Image+.Cue), Lossless] Бишеп
1 | 0

0 | 590

3

20.01.2017 16:39



Последний раз редактировалось: Bratok (29.05.2010 14:08), всего редактировалось 1 раз

Bratok Пол:Муж

21-Май-2010 18:54

31-Янв-2018 21:16

Топик был перенесен из форума Сборники в форум Архив (HQ электронная музыка)


[cron robot]
 

Яндекс.Метрика powered by Sphinx


В Н И М А Н И Е
Сайт не распространяет и не хранит электронные версии произведений, а лишь бесплатно и без коммерческой выгоды (не требуя взамен платы,
SMS и т.д.) предоставляет доступ к создаваемому пользователями каталогу ссылок на торрент-файлы, которые содержат только списки хеш-сумм.
Убедительная просьба с жалобами обращаться напрямую к пользователю, разместившему торрент файл.

Вверх