Loading...
Error

(Progressive Trance) VA - A State Of Trance 2010 (mixed by Armin van Buuren) (2CD) [FLAC (Tracks+.CUE), lossless]

Статистика раздачи
Размер:  1,09 GB   |    Зарегистрирован:  8 лет   |    Скачан:  8 раз

Полного источника не было: 11 месяцев

Сидов:  0  |  0 KB/s  ]   Личеров:  0  |  0 KB/s  ]

* - сиды/пиры с внешних источников

   
 
Автор Сообщение

Bratok Пол:Муж

16-Май-2010 14:45

VA - A State Of Trance 2010 (mixed by Armin van Buuren) (2CD)
Жанр: Progressive Trance
Год выпуска: 2010
Аудиокодек: FLAC
Тип рипа: Tracks+.CUE
Битрейт аудио: lossless
Продолжительность: 02:33:19

Треклист:

CD1 (On The Beach):
01. Omnia & The Blizzard Feat Susana - Closer
02. Luigi Lusini - Who We Are
03. M6 - Days Of Wonder
04. Mat Zo - Near The End
05. Monogato - Sincere
06. Ron Hagen & Al Exander - Last Minute
07. The Thrillseekers - Savanna
08. Orjan Nilsen - Lovers Lane
09. Beat Service Feat Emma Lock - Cut And Run
10. Tenishia Feat Aneym - Stranger To Myself (Tenishia's Burnout Mix)
11. Andy Moor Feat Carrie Skipper - She Moves
12. DJ Governor - Shades Of Grey
13. Myon & Shane 54 Feat Labworks - Ibiza Sunrise (Classic Dub)
14. Andrew Bennett Feat Sir Adrian - Run Till U Shine (Cosmic Gate Remix)

CD2 (In The Club):
01. Velvetine - Safe (Wherever You Are) (Rank 1 Remix - AVB Intro Edit)
02. Faithless - Not Going Home (Armin Van Buuren Remix)
03. Gaia - Aisha
04. Arnej - The Strings That Bind Us
05. DJ Eco Feat Lira Yin - Love (Dub Mix)
06. Roger Shah & Signum - Ancient World (Roger Shah Long Haul Flight)
07. Jer Martin - Ten Minutes To Midnight (Original Club Mix)
08. Dreastic - Spirit
09. Ferry Tayle - Trapeze (Daniel Kandi's Emotional Remix)
00. Max Graham Feat Neev Kennedy - Sun In The Winter (Alex MORPH Remix)
11. Sebastian Brandt - 450
12. Thomas Bronzwaer - Colider (Jorn Van Deynhoven Remix)
13. Ehren Stowers - Ascent
14. Robert Nickson - We Won't Forget
15. Simon Patterson - Taxi

Релиз группы:
EAC extraction logfile from 21. May 2010, 0:25 for CD
Various / A State Of Trance 2o1o CD1

Used drive : TSSTcorpCDDVDW SH-S202J Adapter: 0 ID: 0
Read mode : Secure with NO C2, accurate stream, disable cache
Read offset correction : 6
Overread into Lead-In and Lead-Out : No

Used output format : C:\Program Files\FLAC\flac.exe (User Defined Encoder)
128 kBit/s
Additional command line options : -8 -V -T "ARTIST=%a" -T "TITLE=%t" -T "ALBUM=%g" -T "DATE=%y" -T "TRACKNUMBER=%n" -T "GENRE=%m" -T "COMMENT=EAC FLAC -8" %s

Other options :
Fill up missing offset samples with silence : Yes
Delete leading and trailing silent blocks : No
Native Win32 interface for Win NT & 2000

Track 1
Filename D:\музыка на торент\Armin van Buuren - A State Of Trance 2010\A State Of Trance 2010 CD1\01. Susana Feat. Omnia & The Blizzard – Closer.wav

Pre-gap length 0:00:02.00

Peak level 96.6 %
Track quality 100.0 %
Test CRC FE73C469
Copy CRC FE73C469
Copy OK

Track 2
Filename D:\музыка на торент\Armin van Buuren - A State Of Trance 2010\A State Of Trance 2010 CD1\02. Luigi Lusini – Who We Are.wav

Peak level 96.6 %
Track quality 100.0 %
Test CRC 48EE9B71
Copy CRC 48EE9B71
Copy OK

Track 3
Filename D:\музыка на торент\Armin van Buuren - A State Of Trance 2010\A State Of Trance 2010 CD1\03. M6 – Days Of Wonder.wav

Peak level 96.6 %
Track quality 100.0 %
Test CRC 54416B11
Copy CRC 54416B11
Copy OK

Track 4
Filename D:\музыка на торент\Armin van Buuren - A State Of Trance 2010\A State Of Trance 2010 CD1\04. Mat Zo – Near The End.wav

Peak level 96.6 %
Track quality 100.0 %
Test CRC DABD69F4
Copy CRC DABD69F4
Copy OK

Track 5
Filename D:\музыка на торент\Armin van Buuren - A State Of Trance 2010\A State Of Trance 2010 CD1\05. Monogato – Sincere.wav

Peak level 96.6 %
Track quality 100.0 %
Test CRC 0B7861C4
Copy CRC 0B7861C4
Copy OK

Track 6
Filename D:\музыка на торент\Armin van Buuren - A State Of Trance 2010\A State Of Trance 2010 CD1\06. Ron Hagen & Al Exander – Last Minute.wav

Peak level 96.6 %
Track quality 100.0 %
Test CRC 5561D1CF
Copy CRC 5561D1CF
Copy OK

Track 7
Filename D:\музыка на торент\Armin van Buuren - A State Of Trance 2010\A State Of Trance 2010 CD1\07. The Thrillseekers – Savanna.wav

Peak level 96.6 %
Track quality 100.0 %
Test CRC F0B03C87
Copy CRC F0B03C87
Copy OK

Track 8
Filename D:\музыка на торент\Armin van Buuren - A State Of Trance 2010\A State Of Trance 2010 CD1\08. Orjan Nilsen – Lovers Lane.wav

Peak level 96.6 %
Track quality 100.0 %
Test CRC CEACAD91
Copy CRC CEACAD91
Copy OK

Track 9
Filename D:\музыка на торент\Armin van Buuren - A State Of Trance 2010\A State Of Trance 2010 CD1\09. Beat Service Feat. Emma Lock – Cut And Run.wav

Peak level 96.6 %
Track quality 100.0 %
Test CRC 93A6D5B1
Copy CRC 93A6D5B1
Copy OK

Track 10
Filename D:\музыка на торент\Armin van Buuren - A State Of Trance 2010\A State Of Trance 2010 CD1\10. Tenishia Feat. Aneym – Stranger To Myself (Tenishia's Burnout Mix).wav

Peak level 96.6 %
Track quality 100.0 %
Test CRC 8CB19974
Copy CRC 8CB19974
Copy OK

Track 11
Filename D:\музыка на торент\Armin van Buuren - A State Of Trance 2010\A State Of Trance 2010 CD1\11. Andy Moor Feat. Carrie Skipper – She Moves.wav

Peak level 96.6 %
Track quality 99.9 %
Test CRC D61DD00E
Copy CRC D61DD00E
Copy OK

Track 12
Filename D:\музыка на торент\Armin van Buuren - A State Of Trance 2010\A State Of Trance 2010 CD1\12. DJ Governor – Shades Of Grey.wav

Peak level 96.6 %
Track quality 100.0 %
Test CRC D6F9BA93
Copy CRC D6F9BA93
Copy OK

Track 13
Filename D:\музыка на торент\Armin van Buuren - A State Of Trance 2010\A State Of Trance 2010 CD1\13. Myon And Shane 54 Feat. Labworks – Ibiza Sunrise (Classic Dub).wav

Peak level 96.6 %
Track quality 100.0 %
Test CRC CC620A9E
Copy CRC CC620A9E
Copy OK

Track 14
Filename D:\музыка на торент\Armin van Buuren - A State Of Trance 2010\A State Of Trance 2010 CD1\14. Andrew Bennett Feat. Sir Adrian – Run Till U Shine (Cosmic Gate Remix).wav

Peak level 96.6 %
Track quality 100.0 %
Test CRC 240655F0
Copy CRC 240655F0
Copy OK

No errors occured

End of status report

EAC extraction logfile from 21. May 2010, 0:53 for CD
Various / A State of Trance 2010 (CD2)

Used drive : TSSTcorpCDDVDW SH-S202J Adapter: 0 ID: 0
Read mode : Secure with NO C2, accurate stream, disable cache
Read offset correction : 6
Overread into Lead-In and Lead-Out : No

Used output format : C:\Program Files\FLAC\flac.exe (User Defined Encoder)
128 kBit/s
Additional command line options : -8 -V -T "ARTIST=%a" -T "TITLE=%t" -T "ALBUM=%g" -T "DATE=%y" -T "TRACKNUMBER=%n" -T "GENRE=%m" -T "COMMENT=EAC FLAC -8" %s

Other options :
Fill up missing offset samples with silence : Yes
Delete leading and trailing silent blocks : No
Native Win32 interface for Win NT & 2000

Track 1
Filename D:\музыка на торент\Armin van Buuren - A State Of Trance 2010\A State of Trance 2010 CD2\01. Velvetine – Safe [Wherever You Are] (Rank 1 Remix - AVB Intro Edit).wav

Pre-gap length 0:00:02.00

Peak level 96.6 %
Track quality 99.9 %
Test CRC ECF5211B
Copy CRC ECF5211B
Copy OK

Track 2
Filename D:\музыка на торент\Armin van Buuren - A State Of Trance 2010\A State of Trance 2010 CD2\02. Faithless – Not Going Home (Armin van Buuren Remix).wav

Peak level 96.6 %
Track quality 99.9 %
Test CRC 77F8A356
Copy CRC 77F8A356
Copy OK

Track 3
Filename D:\музыка на торент\Armin van Buuren - A State Of Trance 2010\A State of Trance 2010 CD2\03. Gaia – Aisha.wav

Peak level 96.6 %
Track quality 99.9 %
Test CRC F2D52DFD
Copy CRC F2D52DFD
Copy OK

Track 4
Filename D:\музыка на торент\Armin van Buuren - A State Of Trance 2010\A State of Trance 2010 CD2\04. Arnej – The Strings that Bind Us.wav

Peak level 96.6 %
Track quality 100.0 %
Test CRC 26550DAF
Copy CRC 26550DAF
Copy OK

Track 5
Filename D:\музыка на торент\Armin van Buuren - A State Of Trance 2010\A State of Trance 2010 CD2\05. Eco feat. Lira Yin – Love (Dub Mix).wav

Peak level 96.6 %
Track quality 100.0 %
Test CRC CBBF21BA
Copy CRC CBBF21BA
Copy OK

Track 6
Filename D:\музыка на торент\Armin van Buuren - A State Of Trance 2010\A State of Trance 2010 CD2\06. Roger Shah & Signum – Ancient World (Roger Shah Long Haul Flight).wav

Peak level 96.6 %
Track quality 100.0 %
Test CRC 332E440A
Copy CRC 332E440A
Copy OK

Track 7
Filename D:\музыка на торент\Armin van Buuren - A State Of Trance 2010\A State of Trance 2010 CD2\07. Jer Martin – Ten Minutes to Midnight (Original Club Mix).wav

Peak level 96.6 %
Track quality 100.0 %
Test CRC BD2E3962
Copy CRC BD2E3962
Copy OK

Track 8
Filename D:\музыка на торент\Armin van Buuren - A State Of Trance 2010\A State of Trance 2010 CD2\08. Dreastic – Spirit.wav

Peak level 96.6 %
Track quality 100.0 %
Test CRC C08A09D0
Copy CRC C08A09D0
Copy OK

Track 9
Filename D:\музыка на торент\Armin van Buuren - A State Of Trance 2010\A State of Trance 2010 CD2\09. Ferry Tayle – Trapeze (Daniel Kandi's Emotional Remix).wav

Peak level 96.6 %
Track quality 100.0 %
Test CRC 796EBD35
Copy CRC 796EBD35
Copy OK

Track 10
Filename D:\музыка на торент\Armin van Buuren - A State Of Trance 2010\A State of Trance 2010 CD2\10. Max Graham feat. Neev Kennedy – Sun in the Winter (Alex M.O.R.P.H. Remix).wav

Peak level 96.6 %
Track quality 100.0 %
Test CRC 88640043
Copy CRC 88640043
Copy OK

Track 11
Filename D:\музыка на торент\Armin van Buuren - A State Of Trance 2010\A State of Trance 2010 CD2\11. Sebastian Brandt – 450.wav

Peak level 96.6 %
Track quality 100.0 %
Test CRC A9EDBF69
Copy CRC A9EDBF69
Copy OK

Track 12
Filename D:\музыка на торент\Armin van Buuren - A State Of Trance 2010\A State of Trance 2010 CD2\12. Thomas Bronzwaer – Collider (Jorn van Deynhoven Remix).wav

Peak level 96.6 %
Track quality 100.0 %
Test CRC 5FC3123C
Copy CRC 5FC3123C
Copy OK

Track 13
Filename D:\музыка на торент\Armin van Buuren - A State Of Trance 2010\A State of Trance 2010 CD2\13. Ehren Stowers – Ascent.wav

Peak level 96.6 %
Track quality 100.0 %
Test CRC 205A4191
Copy CRC 205A4191
Copy OK

Track 14
Filename D:\музыка на торент\Armin van Buuren - A State Of Trance 2010\A State of Trance 2010 CD2\14. Robert Nickson – We Won't Forget.wav

Peak level 96.6 %
Track quality 99.9 %
Test CRC 0EE4A689
Copy CRC 0EE4A689
Copy OK

Track 15
Filename D:\музыка на торент\Armin van Buuren - A State Of Trance 2010\A State of Trance 2010 CD2\15. Simon Patterson – Taxi.wav

Peak level 96.6 %
Track quality 100.0 %
Test CRC 08E5EDCE
Copy CRC 08E5EDCE
Copy OK

No errors occured

End of status report

Этот торрент недоступен для скачивания без регистрации, однако доступен по публичной magnet-ссылке (источники с публичных трекеров). Перед использованием ссылки прочтите, пожалуйста Пользовательское соглашение, а также как можно дольше оставайтесь на раздаче! Для того, чтобы скачать сам торрент-файл (который видит больше источников), а также для того, чтобы поблагодарить релизера, вам необходимо зарегистрироваться. Если регистрироваться лень - вы можете также попробовать скачать релиз по нашим партнерским ссылкам ниже. Кроме того, зарегистрированным пользователям не показывается всплывающая реклама при скачивании.

[underverse.su].t10217.torrent
Трекер: Зарегистрирован   [ 20.05.2010 20:59 ]  

Статус: проверено (by Joey at 23.05.2010 22:07)
Поблагодарили: 3 человека
Тип торрента: публичный - доступные источники с открытых трекеров: 
Размер: 1,09 GB (занимает 0,25 DVDR, для записи нужно 1 болванка DVDR/RW)
 
 
Похожие темы
Форум Тема Автор Торрент Отв. Посл. сооб.
Зарубежный Hard, Progressive, Soft, Melodic, AOR, Folk, Classic Rock (Progressive Rock) Liquid Blue Thursdays - Redacted Essays From Nowhere (2017) [MP3, 320 kbps CBR] Darkferse
1 | 0

0 | 634

4

04.04.2017 15:21

Зарубежный Hard, Progressive, Soft, Melodic, AOR, Folk, Classic Rock (Progressive Rock) Family Free Rock - In Full Swing (2017) [MP3, 320 kbps CBR] Darkferse
1 | 1

0 | 469

2

05.06.2017 09:20

Зарубежный Hard, Progressive, Soft, Melodic, AOR, Folk, Classic Rock (Progressive, Art-Rock) VA - The Many Faces of Pink Floyd: A Journey Through The Inner World of Pink Floyd (2013) (3CD) [MP3, 320 kbps CBR] saw444
2 | 1

3 | 1603

24

29.12.2013 06:14

Зарубежный Hard, Progressive, Soft, Melodic, AOR, Folk, Classic Rock (Progressive Rock) Asia - Gravitas [Deluxe Edition] (2014) [MP3 (tracks), 320 kbps] Jimmy
0 | 0

0 | 1906

20

22.03.2014 17:23

Зарубежный Hard, Progressive, Soft, Melodic, AOR, Folk, Classic Rock (Progressive Rock) Akrasy - Tsunami: Love (2016) [MP3, 320 kbps CBR] Darkferse
1 | 0

0 | 782

2

11.12.2016 14:19

Зарубежный Hard, Progressive, Soft, Melodic, AOR, Folk, Classic Rock (Progressive Rock, Hard Rock) Chris Brockbank's Phantom MkV - Phantom (2017) [MP3, 320 kbps CBR] Darkferse
3 | 0

0 | 507

2

05.06.2017 09:17

Зарубежный Hard, Progressive, Soft, Melodic, AOR, Folk, Classic Rock (Progressive Rock) Elephant Plaza - Momentum (2016) [MP3, 320 kbps CBR] IronMan
0 | 0

0 | 931

3

26.06.2016 17:08

Зарубежный Hard, Progressive, Soft, Melodic, AOR, Folk, Classic Rock (Progressive Rock) The Watch - Seven (2017) [MP3, 320 kbps CBR] Darkferse
1 | 0

0 | 918

3

29.05.2017 18:50

Зарубежный Hard, Progressive, Soft, Melodic, AOR, Folk, Classic Rock (Progressive Rock, Stoner Rock) Brieg Guerveno - Valgori (2016) [MP3, 320 kbps CBR] Darkferse
1 | 0

0 | 719

1

09.01.2017 09:41

Зарубежный Hard, Progressive, Soft, Melodic, AOR, Folk, Classic Rock (Progressive Rock, Blues Rock) Quatermass - Quatermass (1990) [FLAC (Image+.Cue), Lossless] Бишеп
1 | 0

0 | 590

3

20.01.2017 16:39



Последний раз редактировалось: Bratok (29.05.2010 14:01), всего редактировалось 10 раз(а)

Unique Пол:Муж

29-Май-2010 13:21

А почему это сборник??? Это не сборник!!!

Bratok Пол:Муж

29-Май-2010 13:22

Везде указано что это сборники!

31-Янв-2018 21:16

Топик был перенесен из форума Сборники в форум Архив (HQ электронная музыка)


[cron robot]
 

Яндекс.Метрика powered by Sphinx


В Н И М А Н И Е
Сайт не распространяет и не хранит электронные версии произведений, а лишь бесплатно и без коммерческой выгоды (не требуя взамен платы,
SMS и т.д.) предоставляет доступ к создаваемому пользователями каталогу ссылок на торрент-файлы, которые содержат только списки хеш-сумм.
Убедительная просьба с жалобами обращаться напрямую к пользователю, разместившему торрент файл.

Вверх