Loading...
Error

(Jazz, Funk, Soul, Pop) Kovacs - My Love (2014) [FLAC (Tracks+.CUE), Lossless]

Статистика раздачи
Размер:  83 MB   |    Зарегистрирован:  9 дней   |    Скачан:  4 раза
Сидов:  2  |  0 KB/s  ]   Личеров:  0  |  0 KB/s  ]

* - сиды/пиры с внешних источников

   
 
Автор Сообщение

Бишеп Пол:Муж

17-Май-2018 08:15

Kovacs - My Love

Жанр: Jazz, Funk, Soul, Pop
Год выпуска: 2014
Источник: CD
Производитель диска: Warner Music Central Europe, Wolf Recordings - 5054196-2444-2-2
Аудиокодек: FLAC
Тип рипа: Tracks+.CUE
Битрейт аудио: lossless
Продолжительность: 00:14:0


Треклист:
01. My Love
02. He Talks That Shit
03. When The Lady's Hurt
04. I've Seen That Face Before (Libertango)

Код:

Exact Audio Copy V1.0 beta 3 from 29. August 2011

EAC extraction logfile from 3. March 2015, 16:02

Kovacs / My Love

Used drive  : HL-DT-STDVDRAM GT30N   Adapter: 2  ID: 0

Read mode               : Secure
Utilize accurate stream : Yes
Defeat audio cache      : Yes
Make use of C2 pointers : No

Read offset correction                      : 103
Overread into Lead-In and Lead-Out          : No
Fill up missing offset samples with silence : Yes
Delete leading and trailing silent blocks   : No
Null samples used in CRC calculations       : Yes
Used interface                              : Native Win32 interface for Win NT & 2000
Gap handling                                : Appended to previous track

Used output format              : User Defined Encoder
Selected bitrate                : 1024 kBit/s
Quality                         : High
Add ID3 tag                     : No
Command line compressor         : C:\Program Files (x86)\Exact Audio Copy\Flac\flac.exe
Additional command line options : -8 -V -T "ARTIST=%artist%" -T "TITLE=%title%" -T "ALBUM=%albumtitle%" -T "DATE=%year%" -T "TRACKNUMBER=%tracknr%" -T "GENRE=%genre%" -T "PERFORMER=%albuminterpret%" -T "COMPOSER=%composer%" %haslyrics%--tag-from-file=LYRICS="%lyricsfile%"%haslyrics% -T "ALBUMARTIST=%albumartist%" -T "DISCNUMBER=%cdnumber%" -T "TOTALDISCS=%totalcds%" -T "TOTALTRACKS=%numtracks%" -T "COMMENT=%comment%" %source% -o %dest%

TOC of the extracted CD

     Track |   Start  |  Length  | Start sector | End sector
    ---------------------------------------------------------
        1  |  0:00.00 |  3:56.34 |         0    |    17733   
        2  |  3:56.34 |  3:41.35 |     17734    |    34343   
        3  |  7:37.69 |  3:18.00 |     34344    |    49193   
        4  | 10:55.69 |  3:10.47 |     49194    |    63490   

Track  1

     Filename Z:\rip\Kovacs - My Love (2014) [FLAC]\01 - My Love.wav

     Pre-gap length  0:00:02.00

     Peak level 99.5 %
     Extraction speed 1.2 X
     Track quality 100.0 %
     Test CRC A1CE9581
     Copy CRC A1CE9581
     Accurately ripped (confidence 5)  [DEAE6FBE]  (AR v2)
     Copy OK

Track  2

     Filename Z:\rip\Kovacs - My Love (2014) [FLAC]\02 - He Talks That Shit.wav

     Pre-gap length  0:00:01.65

     Peak level 99.5 %
     Extraction speed 1.3 X
     Track quality 100.0 %
     Test CRC CFDF4645
     Copy CRC CFDF4645
     Accurately ripped (confidence 5)  [9582A29E]  (AR v2)
     Copy OK

Track  3

     Filename Z:\rip\Kovacs - My Love (2014) [FLAC]\03 - When The Lady's Hurt.wav

     Pre-gap length  0:00:01.80

     Peak level 99.3 %
     Extraction speed 1.4 X
     Track quality 100.0 %
     Test CRC 3152C59E
     Copy CRC 3152C59E
     Accurately ripped (confidence 5)  [5AE34B20]  (AR v2)
     Copy OK

Track  4

     Filename Z:\rip\Kovacs - My Love (2014) [FLAC]\04 - I've Seen That Face Before (Libertango).wav

     Pre-gap length  0:00:01.90

     Peak level 99.9 %
     Extraction speed 1.5 X
     Track quality 100.0 %
     Test CRC 5B243F7D
     Copy CRC 5B243F7D
     Accurately ripped (confidence 5)  [4482F398]  (AR v2)
     Copy OK

All tracks accurately ripped

No errors occurred

End of status report

==== Log checksum 549B178C0365A623E5E897629AD5B0BC8300C710F49F79D94B3CEB6880DDCD8D ====

Код:

REM GENRE Pop
REM DATE 2014
REM DISCID 33034E04
REM COMMENT "ExactAudioCopy v1.0b3"
CATALOG 5054196244422
PERFORMER "Kovacs"
TITLE "My Love"
FILE "01 - My Love.wav" WAVE
  TRACK 01 AUDIO
    TITLE "My Love"
    PERFORMER "Kovacs"
    ISRC NLB8P1400001
    INDEX 01 00:00:00
  TRACK 02 AUDIO
    TITLE "He Talks That Shit"
    PERFORMER "Kovacs"
    ISRC NLB8P1400003
    INDEX 00 03:54:60
FILE "02 - He Talks That Shit.wav" WAVE
    INDEX 01 00:00:00
  TRACK 03 AUDIO
    TITLE "When The Lady's Hurt"
    PERFORMER "Kovacs"
    ISRC NLB8P1400004
    INDEX 00 03:39:50
FILE "03 - When The Lady's Hurt.wav" WAVE
    INDEX 01 00:00:00
  TRACK 04 AUDIO
    TITLE "I've Seen That Face Before (Libertango)"
    PERFORMER "Kovacs"
    ISRC NLB8P1400005
    INDEX 00 03:16:07
FILE "04 - I've Seen That Face Before (Libertango).wav" WAVE
    INDEX 01 00:00:00


Этот торрент недоступен для скачивания без регистрации, однако доступен по публичной magnet-ссылке (источники с публичных трекеров). Перед использованием ссылки прочтите, пожалуйста Пользовательское соглашение, а также как можно дольше оставайтесь на раздаче! Для того, чтобы скачать сам торрент-файл (который видит больше источников), а также для того, чтобы поблагодарить релизера, вам необходимо зарегистрироваться. Если регистрироваться лень - вы можете также попробовать скачать релиз по нашим партнерским ссылкам ниже. Кроме того, зарегистрированным пользователям не показывается всплывающая реклама при скачивании.

[underverse.me].t104272.torrent
Трекер: Зарегистрирован   [ 17.05.2018 08:15 ]  

Статус: проверено (by Бишеп at 17.05.2018 08:17)
Поблагодарили: 1 человек
Тип торрента: публичный - доступные источники с открытых трекеров: 
Размер: 83 MB (занимает 0,02 DVDR, для записи нужно 1 болванка DVDR/RW)
 
 
Похожие темы
Форум Тема Автор Торрент Отв. Посл. сооб.
Jazz (Jazz, Funk, Neo Soul) Anatoly Ice & Dariya - A Long Way (2017) [MP3, 320 kbps CBR] Darkferse
3 | 0

0 | 555

3

19.03.2017 11:11

Jazz (Jazz, Funk) Magnus Lindgren - Stockholm Underground (2017) [MP3, 320 kbps CBR] Darkferse
7 | 1

0 | 391

3

27.08.2017 06:53

Jazz (Jazz, Funk Jazz) The Crusaders - Rhapsody And Blues (1980) [MP3, 256 kbps CBR] Боцман
1 | 0

1 | 114

6

01.04.2018 08:03

Jazz (Lossless) (Jazz, Funk, Contemporary Jazz) George Benson - The Best Of George Benson (1995) [FLAC (Image+.Cue), Lossless] Бишеп
3 | 0

0 | 925

7

05.11.2016 10:37


Яндекс.Метрика powered by Sphinx


В Н И М А Н И Е
Сайт не распространяет и не хранит электронные версии произведений, а лишь бесплатно и без коммерческой выгоды (не требуя взамен платы,
SMS и т.д.) предоставляет доступ к создаваемому пользователями каталогу ссылок на торрент-файлы, которые содержат только списки хеш-сумм.
Убедительная просьба с жалобами обращаться напрямую к пользователю, разместившему торрент файл.

Вверх