Loading...
Error

Кукла / The Boy (Уильям Брент Белл) [ 2016 г., Ужасы, триллер, BDRemux 1080p] Dub + Original + Sub

Статистика раздачи
Размер:  28,1 GB   |    Зарегистрирован:  11 дней   |    Скачан:  2 раза

Полного источника не было: 8 дней

Сидов:  0  |  0 KB/s  ]   Личеров:  0  |  0 KB/s  ]

* - сиды/пиры с внешних источников

   
 
Автор Сообщение

90ytr90 

16-Май-2018 07:20

Кукла / The Boy
Информация о фильме
Название: Кукла
Оригинальное название: The Boy
Год выхода: 2016
Жанр: Ужасы, триллер
Режиссёр: Уильям Брент Белл

В ролях: Лорен Коэн, Руперт Эванс, Джеймс Расселл, Джим Нортон (I), Диана Хардкэсл, Бен Робсон, Джетт Клине, Стефани Николь Лемелин
imdb
О фильме: Благополучная английская семья нанимает для своего сына американскую няню. Приехав на новое место работы, няня обнаруживает, что ее подопечный — вовсе не настоящий мальчик, а кукла в человеческий рост, с которой обращаются, как с живым человеком. Но тревожные события, происходящие после того, как няня нарушает установленные строгие правила, заставляют её поверить в то, что кукла действительно может быть живой…
Страна: США, Китай, Канада
Студия: Huayi Brothers Media, Lakeshore Entertainment, Robert Simonds Company, The, Vertigo Entertainment
Продолжительность: 01:37:47
Перевод: Дублированный | Лицензия

Качество: BDRemux 1080p
Видео: MPEG-4 AVC, 1920x1080, 33.8 Mbit/s, 23.976 fps
Звук:
Аудио #01: 48 kHz, DTS-HD MA, 5.1, 3451 Kbps | Лицензия | RUS |
Аудио #02: 48 kHz, AC3, 5.1, 640 Kbps | Лицензия | RUS |
Аудио #03: 48 kHz, DTS-HD MA, 5.1, 3187 Kbps | Оригинал | ENG |
Субтитры: Русские (full), английские

General
Unique ID : 8885774417759478776920561162862060349 (0x6AF5680D0024EF925994196E749E33D)
Complete name : C:Video111The.Boy.2016.BDREMUX.1080p.ExKinoRay.mkv
Format : Matroska
Format version : Version 4 / Version 2
File size : 28.1 GiB
Duration : 1 h 37 min
Overall bit rate mode : Variable
Overall bit rate : 41.1 Mb/s
Movie name : The Boy [url=//yarutor.org/tag/1/2016]2016[/url] from ExKinoRay
Encoded date : UTC 2018-05-16 04:50:16
Writing application : mkvmerge v22.0.0 ('At The End Of The World') 64-bit
Writing library : libebml v1.3.5 + libmatroska v1.4.8
Video
ID : 1
Format : AVC
Format/Info : Advanced Video Codec
Format profile : High@L4.1
Format settings : CABAC / 4 Ref Frames
Format settings, CABAC : Yes
Format settings, ReFrames : 4 frames
Codec ID : V_MPEG4/ISO/AVC
Duration : 1 h 37 min
Bit rate mode : Variable
Bit rate : 33.8 Mb/s
Maximum bit rate : 37.0 Mb/s
Width : 1 920 pixels
Height : 1 080 pixels
Display aspect ratio : 16:9
Frame rate mode : Constant
Frame rate : 23.976 (24000/1001) FPS
Color space : YUV
Chroma subsampling : 4:2:0
Bit depth : 8 bits
Scan type : Progressive
Bits/(Pixel*Frame) : 0.681
Stream size : 23.1 GiB (82%)
Language : English
Default : Yes
Forced : No
Audio #1
ID : 2
Format : DTS
Format/Info : Digital Theater Systems
Format profile : MA / Core
Codec ID : A_DTS
Duration : 1 h 37 min
Bit rate mode : Variable / Constant
Bit rate : 3 451 kb/s / 1 509 kb/s
Channel(s) : 6 channels
Channel positions : Front: L C R, Side: L R, LFE
Sampling rate : 48.0 kHz
Frame rate : 93.750 FPS (512 SPF)
Bit depth : 24 bits
Compression mode : Lossless / Lossy
Stream size : 2.36 GiB (8%)
Title : Dub [License]
Language : Russian
Default : No
Forced : No
Audio #2
ID : 3
Format : AC-3
Format/Info : Audio Coding 3
Codec ID : A_AC3
Duration : 1 h 37 min
Bit rate mode : Constant
Bit rate : 640 kb/s
Channel(s) : 6 channels
Channel positions : Front: L C R, Side: L R, LFE
Sampling rate : 48.0 kHz
Frame rate : 31.250 FPS (1536 SPF)
Bit depth : 16 bits
Compression mode : Lossy
Stream size : 447 MiB (2%)
Title : Dub [License]
Language : Russian
Service kind : Complete Main
Default : No
Forced : No
Audio #3
ID : 4
Format : DTS
Format/Info : Digital Theater Systems
Format profile : MA / Core
Codec ID : A_DTS
Duration : 1 h 37 min
Bit rate mode : Variable / Constant
Bit rate : 3 187 kb/s / 1 509 kb/s
Channel(s) : 6 channels
Channel positions : Front: L C R, Side: L R, LFE
Sampling rate : 48.0 kHz
Frame rate : 93.750 FPS (512 SPF)
Bit depth : 24 bits
Compression mode : Lossless / Lossy
Stream size : 2.18 GiB (8%)
Title : Original
Language : English
Default : No
Forced : No
Text #1
ID : 5
Format : UTF-8
Codec ID : S_TEXT/UTF8
Codec ID/Info : UTF-8 Plain Text
Duration : 1 h 29 min
Bit rate : 64 b/s
Count of elements : 801
Stream size : 42.6 KiB (0%)
Title : Full
Language : Russian
Default : No
Forced : No
Text #2
ID : 6
Format : UTF-8
Codec ID : S_TEXT/UTF8
Codec ID/Info : UTF-8 Plain Text
Duration : 1 h 27 min
Bit rate : 42 b/s
Count of elements : 1023
Stream size : 27.2 KiB (0%)
Title : Full
Language : English
Default : No
Forced : No
Text #3
ID : 7
Format : UTF-8
Codec ID : S_TEXT/UTF8
Codec ID/Info : UTF-8 Plain Text
Duration : 1 h 27 min
Bit rate : 46 b/s
Count of elements : 1094
Stream size : 29.6 KiB (0%)
Title : SDH
Language : English
Default : No
Forced : No
Text #4
ID : 8
Format : UTF-8
Codec ID : S_TEXT/UTF8
Codec ID/Info : UTF-8 Plain Text
Duration : 1 h 29 min
Bit rate : 56 b/s
Count of elements : 1176
Stream size : 37.4 KiB (0%)
Title : SDH Colored
Language : English
Default : No
Forced : No
Menu
00:00:00.000 : en:Chapter 1
00:05:49.015 : en:Chapter 2
00:09:52.258 : en:Chapter 3
00:14:04.927 : en:Chapter 4
00:18:13.383 : en:Chapter 5
00:23:54.975 : en:Chapter 6
00:27:56.466 : en:Chapter 7
00:32:18.269 : en:Chapter 8
00:38:13.833 : en:Chapter 9
00:41:39.371 : en:Chapter 10
00:45:05.828 : en:Chapter 11
00:51:30.670 : en:Chapter 12
00:54:20.757 : en:Chapter 13
01:01:26.099 : en:Chapter 14
01:05:35.890 : en:Chapter 15
01:09:25.828 : en:Chapter 16
01:15:54.550 : en:Chapter 17
01:19:52.954 : en:Chapter 18
01:27:04.677 : en:Chapter 19
01:33:20.595 : en:Chapter 20
Релиз от: Автор релиза: Rip by СелезеньS
Подпишись на меня, кликни по картинке :

Этот торрент недоступен для скачивания без регистрации, однако доступен по публичной magnet-ссылке (источники с публичных трекеров). Перед использованием ссылки прочтите, пожалуйста Пользовательское соглашение, а также как можно дольше оставайтесь на раздаче! Для того, чтобы скачать сам торрент-файл (который видит больше источников), а также для того, чтобы поблагодарить релизера, вам необходимо зарегистрироваться. Если регистрироваться лень - вы можете также попробовать скачать релиз по нашим партнерским ссылкам ниже. Кроме того, зарегистрированным пользователям не показывается всплывающая реклама при скачивании.

[underverse.me].t104238.torrent
Трекер: Зарегистрирован   [ 16.05.2018 07:20 ]  

Статус: * не проверено
Поблагодарили: пока никто не поблагодарил...
Тип торрента: публичный - доступные источники с открытых трекеров: 
Размер: 28,1 GB (занимает 6,42 DVDR, для записи нужно 7 болванок DVDR/RW)
 
 
Похожие темы
Форум Тема Автор Торрент Отв. Посл. сооб.
Зарубежное кино [DVDRip, Low-Res HDRip, и т.д.] Кукла / The boy (Крэйг Уилльям Макнейлл) [2015 г., ужасы, триллер, драма, WEB-DLRip] VO [LetEatBee] Паукан
5 | 0

0 | 795

26

30.08.2015 11:17

Зарубежное кино [DVDRip, Low-Res HDRip, и т.д.] Кукла / The Boy (Уильям Брент Белл / William Brent Bell) [2016 г., ужасы, триллер, детектив, BDRip] Dub 90ytr90
61 | 6

0 | 333

6

14.05.2018 18:13

Зарубежное кино [DVDRip, Low-Res HDRip, и т.д.] Кукла / The Boy (Уильям Брент Белл / William Brent Bell) [2016 г., ужасы, триллер, детектив, BDRip-AVC] Dub + Original (Eng) + Sub (Rus, Eng) 90ytr90
18 | 3

0 | 321

0

14.05.2018 18:15

Зарубежное кино [DVDRip, Low-Res HDRip, и т.д.] Кукла / The Boy (Уильям Брент Белл / William Brent Bell) [2016 г., ужасы, триллер, детектив, BDRip] Dub 90ytr90
27 | 4

0 | 349

2

14.05.2018 19:32

T Зарубежное кино [HDDVDRip / BDRip / WEB-DL / HDTV 1080/720р] Кукла / The Boy (Уильям Брент Белл / William Brent Bell) [2016 г., ужасы, триллер, BDRip 720p] Dub (iTunes) + Original (Eng) + Sub (Eng) 90ytr90
90 | 3

0 | 850

10

27.04.2016 18:40

T Зарубежное кино [HDDVDRip / BDRip / WEB-DL / HDTV 1080/720р] Кукла / The Boy (Уильям Брент Белл / William Brent Bell) [2016 г., ужасы, триллер, BDRip 1080p] Dub (iTunes) + Original (Eng) + Sub (Eng) 90ytr90
23 | 4

0 | 9779

9

27.04.2016 18:47

* Зарубежное кино [HDDVDRip / BDRip / WEB-DL / HDTV 1080/720р] Кукла / The Boy (Уильям Брент Белл) [ 2016 г., Ужасы, триллер, BDRip 1080p] Dub + Original + Sub 90ytr90
27 | 5

0 | 160

3

16.05.2018 07:01

* Зарубежное кино [HDDVDRip / BDRip / WEB-DL / HDTV 1080/720р] Кукла / The Boy (Уильям Брент Белл) [ 2016 г., Ужасы, триллер, BDRip 720p] Dub + Original + Sub 90ytr90
29 | 6

0 | 170

1

16.05.2018 07:03


Яндекс.Метрика powered by Sphinx


В Н И М А Н И Е
Сайт не распространяет и не хранит электронные версии произведений, а лишь бесплатно и без коммерческой выгоды (не требуя взамен платы,
SMS и т.д.) предоставляет доступ к создаваемому пользователями каталогу ссылок на торрент-файлы, которые содержат только списки хеш-сумм.
Убедительная просьба с жалобами обращаться напрямую к пользователю, разместившему торрент файл.

Вверх